66
PUNTOS
Calificar
CALIFICA
Calificar
Califica y/o escribe un comentario sobre la película.
Comentarios en el foroFORO

C'est ça l'amour (2019)

Desde que su mujer se fue, Mario se ocupa solo de su hogar y cuida de sus dos hijas, en plena crisis de adolescencia. Frida, de 14 a?os, lo culpa de que su madre se haya marchado. Nilki, de 17, solo sue?a con marcharse de casa. Mario, por su parte, espera que un día su mujer regrese a casa.
Director Claire Burger
Actores Bouli Lanners, Justine Lacroix, Sarah Henochsberg, Cécile Rémy-Boutang
Duración 98 min
Streaming (Servicio externo)
Grupo: EXTREME
Versión: WEB H264 1080p
Tamaño: 3.5 GB
General
Unique ID : 284834607857597029289267511123156652096 (0xD64926697C2C8A5A7D8DB0FC0A3BD040)
Complete name : C'est.c?a.l'amour.2018.FRENCH.1080p.WEB.H264-EXTREME.mkv
Format : Matroska
Format version : Version 4
File size : 3.27 GiB
Duration : 1 h 34 min
Overall bit rate : 4 948 kb/s
Encoded date : UTC 2019-08-03 07:56:27
Writing application : mkvmerge v35.0.0 ('All The Love In The World') 64-bit
Writing library : libebml v1.3.9 + libmatroska v1.5.2

Video
ID : 2
Format : AVC
Format/Info : Advanced Video Codec
Format profile : [email protected]
Format settings : CABAC / 5 Ref Frames
Format settings, CABAC : Yes
Format settings, Reference frames : 5 frames
Codec ID : V_MPEG4/ISO/AVC
Duration : 1 h 34 min
Bit rate : 4 562 kb/s
Width : 1 920 pixels
Height : 804 pixels
Display aspect ratio : 2.40:1
Frame rate mode : Constant
Frame rate : 25.000 FPS
Color space : YUV
Chroma subsampling : 4:2:0
Bit depth : 8 bits
Scan type : Progressive
Bits/(Pixel*Frame) : 0.118
Stream size : 3.01 GiB (92%)
Language : English
Default : Yes
Forced : No
Color range : Limited
Color primaries : BT.709
Transfer characteristics : BT.709
Matrix coefficients : BT.709

Audio
ID : 1
Format : AC-3
Format/Info : Audio Coding 3
Commercial name : Dolby Digital
Codec ID : A_AC3
Duration : 1 h 34 min
Bit rate mode : Constant
Bit rate : 384 kb/s
Channel(s) : 6 channels
Channel layout : L R C LFE Ls Rs
Sampling rate : 48.0 kHz
Frame rate : 31.250 FPS (1536 SPF)
Bit depth : 16 bits
Compression mode : Lossy
Delay relative to video : -40 ms
Stream size : 260 MiB (8%)
Language : French
Service kind : Complete Main
Default : Yes
Forced : No

Menu
00:00:00.000 : en:Chapitre 1
00:09:26.680 : en:Chapitre 2
00:20:06.199 : en:Chapitre 3
00:28:11.599 : en:Chapitre 4
00:36:19.999 : en:Chapitre 5
00:48:42.439 : en:Chapitre 6
00:57:13.959 : en:Chapitre 7
01:03:29.518 : en:Chapitre 8
01:12:18.758 : en:Chapitre 9
01:24:59.478 : en:Chapitre 10

Subtitulos

Trailer