66
PUNTOS
Calificar
CALIFICA
Calificar
Califica y/o escribe un comentario sobre la película.
Comentarios en el foroFORO

Bashtata (2019)

El día siguiente al fallecimiento de Valentina, su desconsolado marido Vassil y su hijo Pavel descubren que la difunta realiza llamadas al teléfono de una vecina. Vassil, que es un crédulo aficionado a los fenómenos paranormales, emprende un viaje con el fin de entrevistarse con un reputado parapsicólogo. Su determinación termina por obligar a su hijo, del que se encuentra distanciado, a acompa?arlo para evitar que su anciano padre, que no parece estar enteramente en sus cabales, corra peligro.
Director Kristina Grozeva, Petar Valchanov
Actores Ivan Barnev, Ivan Savov, Tanya Shahova, Hristofor Nedkov
Duración 87 min
Streaming (Servicio externo)
Grupo: HORiZON-ArtSubs
Versión: WEBRip x264 720p
Tamaño: 2.9 GB
The.Father.[Bashtata].2019.720p.WEBRip.x264.AC3.HORiZON-ArtSubs.mkv
Format                                   : Matroska
Format version                           : Version 4
File size                                : 2.91 GiB
Duration                                 : 1 h 30 min
Overall bit rate                         : 4 595 kb/s
Encoded date                             : UTC 2021-01-21 14:28:24
Writing application                      : mkvmerge v50.0.0 ('Awakenings') 64-bit
Writing library                          : libebml v1.4.0 + libmatroska v1.6.2

Video
ID                                       : 1
Format                                   : AVC
Format/Info                              : Advanced Video Codec
Format profile                           : [email protected]
Format settings                          : CABAC / 7 Ref Frames
Format settings, CABAC                   : Yes
Format settings, Reference frames        : 7 frames
Codec ID                                 : V_MPEG4/ISO/AVC
Duration                                 : 1 h 30 min
Bit rate                                 : 4 400 kb/s
Width                                    : 1 280 pixels
Height                                   : 538 pixels
Display aspect ratio                     : 2.40:1
Frame rate mode                          : Constant
Frame rate                               : 24.000 FPS
Color space                              : YUV
Chroma subsampling                       : 4:2:0
Bit depth                                : 8 bits
Scan type                                : Progressive
Bits/(Pixel*Frame)                       : 0.266
Stream size                              : 2.79 GiB (96%)
Writing library                          : x264 core 157 r2969 d4099dd
Encoding settings                        : cabac=1 / ref=8 / deblock=1:-1:-1 / analyse=0x3:0x133 / me=tesa / subme=9 / psy=1 / psy_rd=1.00:0.15 / mixed_ref=1 / me_range=16 / chroma_me=1 / trellis=2 / 8x8dct=1 / cqm=0 / deadzone=21,11 / fast_pskip=1 / chroma_qp_offset=-3 / threads=12 / lookahead_threads=3 / sliced_threads=0 / nr=0 / decimate=1 / interlaced=0 / bluray_compat=0 / constrained_intra=0 / bframes=10 / b_pyramid=1 / b_adapt=2 / b_bias=0 / direct=3 / weightb=1 / open_gop=0 / weightp=2 / keyint=240 / keyint_min=24 / scenecut=40 / intra_refresh=0 / rc_lookahead=60 / rc=2pass / mbtree=1 / bitrate=4400 / ratetol=1.0 / qcomp=0.60 / qpmin=0 / qpmax=69 / qpstep=4 / cplxblur=20.0 / qblur=0.5 / vbv_maxrate=62500 / vbv_bufsize=78125 / nal_hrd=none / filler=0 / ip_ratio=1.40 / aq=1:1.00
Default                                  : Yes
Forced                                   : No

Audio
ID                                       : 2
Format                                   : AC-3
Format/Info                              : Audio Coding 3
Commercial name                          : Dolby Digital
Codec ID                                 : A_AC3
Duration                                 : 1 h 30 min
Bit rate mode                            : Constant
Bit rate                                 : 192 kb/s
Channel(s)                               : 2 channels
Channel layout                           : L R
Sampling rate                            : 48.0 kHz
Frame rate                               : 31.250 FPS (1536 SPF)
Compression mode                         : Lossy
Stream size                              : 124 MiB (4%)
Language                                 : Bulgarian
Service kind                             : Complete Main
Default                                  : Yes
Forced                                   : No

Text
ID                                       : 3
Format                                   : UTF-8
Codec ID                                 : S_TEXT/UTF8
Codec ID/Info                            : UTF-8 Plain Text
Duration                                 : 1 h 25 min
Bit rate                                 : 49 b/s
Count of elements                        : 830
Stream size                              : 31.2 KiB (0%)
Language                                 : English
Default                                  : Yes
Forced                                   : No

Subtitulos

Grupo: BulIT
Versión: WebRip x264 720p
Tamaño: 1.5 GB
General
Unique ID                   : 187636420968734131208329327268450002505 (0x8D2975CE5D7F43DF6920891AADEFE649)
Complete name               : The.Father.(2019).720p.BULGARIAN.WebRip.x264.AAC.2.0-BulIT.mkv
Format                      : Matroska
Format version              : Version 4
File size                   : 1.42 GiB
Duration                    : 1 h 26 min
Overall bit rate            : 2 339 kb/s
Encoded date                : UTC 2020-10-03 16:04:47
Writing application         : mkvmerge v50.0.0 ('Awakenings') 64-bit
Writing library             : libebml v1.4.0 + libmatroska v1.6.2

Video
ID                          : 1
Format                      : AVC
Format/Info                 : Advanced Video Codec
Format profile              : [email protected]
Format settings             : CABAC / 4 Ref Frames
Format settings, CABAC      : Yes
Format settings, Reference  : 4 frames
Codec ID                    : V_MPEG4/ISO/AVC
Duration                    : 1 h 26 min
Bit rate                    : 2 208 kb/s
Width                       : 1 280 pixels
Height                      : 538 pixels
Display aspect ratio        : 2.40:1
Frame rate mode             : Constant
Frame rate                  : 25.000 FPS
Color space                 : YUV
Chroma subsampling          : 4:2:0
Bit depth                   : 8 bits
Scan type                   : Progressive
Bits/(Pixel*Frame)          : 0.128
Stream size                 : 1.34 GiB (94%)
Writing library             : x264 core 157 r2969
Default                     : Yes
Forced                      : No

Audio
ID                          : 2
Format                      : AAC LC
Format/Info                 : Advanced Audio Codec Low Complexity
Codec ID                    : A_AAC-2
Duration                    : 1 h 26 min
Bit rate                    : 128 kb/s
Channel(s)                  : 2 channels
Channel layout              : L R
Sampling rate               : 44.1 kHz
Frame rate                  : 43.066 FPS (1024 SPF)
Compression mode            : Lossy
Stream size                 : 79.9 MiB (5%)
Language                    : Bulgarian
Default                     : Yes
Forced                      : No
Trailer