59
PUNTOS
Calificar
CALIFICA
Calificar
Califica y/o escribe un comentario sobre la película.
Comentarios en el foroFORO

Batman: Soul of the Dragon (2021)

Ambientada en la década de 1970, esta aventura de Elseworlds nos trae a Bruce Wayne entrenando con un maestro sensei. Es aquí donde Bruce, junto con otros estudiantes de élite, se forja en el fuego de la disciplina de las artes marciales. Los lazos de por vida que forman se pondrán a prueba cuando surja una amenaza mortal. ¡Se necesitarán los esfuerzos combinados de Batman, los artistas marciales de renombre mundial Richard Dragon, Ben Turner, Lady Shiva y su mentor O-Sensei para luchar contra los monstruos de este mundo y el más allá!
Director Sam Liu
Actores David Giuntoli, Mark Dacascos, Kelly Hu, Michael Jai White
Duración 83 min
Streaming (Servicio externo)
Grupo: CM
Versión: WebRip x264 1080p E-AC3
Tamaño: 3.5 GB
Video
Format : AVC
Format/Info : Advanced Video Codec
Format profile : [email protected]
Format settings : CABAC / 2 Ref Frames
Format settings, CABAC : Yes
Format settings, Reference frames : 2 frames
Codec ID : V_MPEG4/ISO/AVC
Duration : 1 h 22 min
Bit rate : 5 668 kb/s
Width : 1 920 pixels
Height : 1 080 pixels
Display aspect ratio : 16:9
Frame rate mode : Constant
Frame rate : 23.976 (24000/1001) FPS
Color space : YUV
Chroma subsampling : 4:2:0
Bit depth : 8 bits
Scan type : Progressive
Bits/(Pixel*Frame) : 0.114
Stream size : 3.27 GiB (94%)
Writing library : x264 core 155 r2901 7d0ff22
Default : Yes
Forced : No
Color range : Limited
Color primaries : BT.709
Transfer characteristics : BT.709
Matrix coefficients : BT.709

Audio
Format : E-AC-3
Format/Info : Enhanced AC-3
Commercial name : Dolby Digital Plus
Codec ID : A_EAC3
Duration : 1 h 22 min
Bit rate mode : Constant
Bit rate : 384 kb/s
Channel(s) : 6 channels
Channel layout : L R C LFE Ls Rs
Sampling rate : 48.0 kHz
Frame rate : 31.250 FPS (1536 SPF)
Compression mode : Lossy
Stream size : 227 MiB (6%)
Title : English
Language : English
Service kind : Complete Main
Default : No
Forced : No

Subtitulos

Grupo: PiGNUS
Versión: BDRip x264
Tamaño: 350 MB
Name: Batman.Soul.of.the.Dragon.2021.BDRip.x264-PiGNUS

Release date: 26-01-2021

Audio: English

Resolution: 720x404
Audio bitrate: 128 kbps VBR AAC LC
Video bitrate: 456 kbps, CRF 19
Grupo: PiGNUS
Versión: BDRip x264 720p
Tamaño: 1.8 GB
Name: Batman.Soul.of.the.Dragon.2021.720p.BluRay.x264-PiGNUS

Release date: 26-01-2021

Audio: English

Resolution: 1280x720
Audio bitrate: 640 kbps AC3
Video bitrate: 2416 kbps, CRF 14.5
Source: 13997 kbps
Grupo: PiGNUS
Versión: BDRip x264 1080p
Tamaño: 5.7 GB
Name: Batman.Soul.of.the.Dragon.2021.1080p.BluRay.x264-PiGNUS

Release date: 26-01-2021

Audio: English

Resolution: 1920x1080
Audio bitrate: DTS-HD Master 6ch 2374 kbps
Video bitrate: 7416 kbps, CRF 15.5
Source: 13997 kbps
Trailer