56
PUNTOS
Calificar
CALIFICA
Calificar
Califica y/o escribe un comentario sobre la película.
Comentarios en el foroFORO

Blood on Her Name (2020)

La decisión precipitada de una mujer de encubrir un asesinato accidental acaba teniendo consecuencias terribles para ella cuando su conciencia empieza a reclamarle que devuelva el cuerpo de asesinado a su familia.
Director Matthew Pope
Actores Bethany Anne Lind, Will Patton, Elisabeth Röhm, Jared Ivers
Duración 85 min
Streaming (Servicio externo)
Grupo: FGT
Versión: WEB-DL H264 1080p
Tamaño: 2.9 GB
Video
ID : 1
Format : AVC
Format/Info : Advanced Video Codec
Format profile : [email protected]
Format settings : CABAC / 5 Ref Frames
Format settings, CABAC : Yes
Format settings, Reference frames : 5 frames
Format settings, GOP : N=1
Codec ID : V_MPEG4/ISO/AVC
Duration : 1 h 23 min
Bit rate : 4 550 kb/s
Width : 1 908 pixels
Height : 792 pixels
Display aspect ratio : 2.40:1
Frame rate mode : Constant
Frame rate : 23.976 FPS
Color space : YUV
Chroma subsampling : 4:2:0
Bit depth : 8 bits
Scan type : Progressive
Bits/(Pixel*Frame) : 0.126
Stream size : 2.66 GiB (92%)
Title : Blood.On.Her.Name.2019.1080p.WEB-DL.DD5.1.H264-FGT
Language : English
Default : Yes
Forced : No
Color range : Limited
Color primaries : BT.709
Transfer characteristics : BT.709
Matrix coefficients : BT.709

Audio
ID : 2
Format : AC-3
Format/Info : Audio Coding 3
Commercial name : Dolby Digital
Codec ID : A_AC3
Duration : 1 h 23 min
Bit rate mode : Constant
Bit rate : 384 kb/s
Channel(s) : 6 channels
Channel layout : L R C LFE Ls Rs
Sampling rate : 48.0 kHz
Frame rate : 31.250 FPS (1536 SPF)
Compression mode : Lossy
Delay relative to video : -42 ms
Stream size : 230 MiB (8%)
Title : Blood.On.Her.Name.2019.1080p.WEB-DL.DD5.1.H264-FGT
Language : English
Service kind : Complete Main
Default : Yes
Forced : No

Text
ID : 3
Format : UTF-8
Codec ID : S_TEXT/UTF8
Codec ID/Info : UTF-8 Plain Text
Duration : 1 h 23 min
Bit rate : 56 b/s
Count of elements : 1080
Stream size : 34.3 KiB (0%)
Language : English
Default : Yes
Forced : No

Menu
00:00:00.000 : en:1
00:11:38.000 : en:2
00:21:25.000 : en:3
00:31:26.000 : en:4
00:41:41.000 : en:5
00:54:33.000 : en:6
01:00:39.000 : en:7
01:09:28.000 : en:8
01:20:36.000 : en:9

Subtitulos

Trailer