65
PUNTOS
Calificar
CALIFICA
Calificar
Califica y/o escribe un comentario sobre la película.
Comentarios en el foroFORO

The Nest (2020)

A?os 80. Rory es un ambicioso empresario que lleva a su esposa e hijos estadounidenses a su país natal, Reino Unido, para explorar nuevas oportunidades de negocios. La familia se encontrará con una nueva y difícil vida en una casa de campo inglesa, bajo la presión social y económica que amenaza con destruir a la familia.
Director Sean Durkin
Actores Jude Law, Carrie Coon, Oona Roche, Charlie Shotwell
Duración 107 min
Streaming (Servicio externo)
Grupo: iNTENSO
Versión: WEB H264 1080p
Tamaño: 4.0 GB
Video
ID : 1
Format : AVC
Format/Info : Advanced Video Codec
Format profile : [email protected]
Format settings : CABAC / 4 Ref Frames
Format settings, CABAC : Yes
Format settings, Reference frames : 4 frames
Codec ID : V_MPEG4/ISO/AVC
Duration : 1 h 47 min
Bit rate : 4 907 kb/s
Width : 1 916 pixels
Height : 1 034 pixels
Display aspect ratio : 1.85:1
Frame rate mode : Constant
Frame rate : 24.000 FPS
Color space : YUV
Chroma subsampling : 4:2:0
Bit depth : 8 bits
Scan type : Progressive
Bits/(Pixel*Frame) : 0.103
Stream size : 3.69 GiB (93%)
Language : English
Default : Yes
Forced : No
Color range : Limited
Color primaries : BT.709
Transfer characteristics : BT.709
Matrix coefficients : BT.709

Audio
ID : 2
Format : AC-3
Format/Info : Audio Coding 3
Commercial name : Dolby Digital
Codec ID : A_AC3
Duration : 1 h 47 min
Bit rate mode : Constant
Bit rate : 384 kb/s
Channel(s) : 6 channels
Channel layout : L R C LFE Ls Rs
Sampling rate : 48.0 kHz
Frame rate : 31.250 FPS (1536 SPF)
Compression mode : Lossy
Stream size : 296 MiB (7%)
Language : English
Service kind : Complete Main
Default : Yes
Forced : No

Menu
00:00:00.000 : en:1
00:08:00.333 : en:2
00:18:13.541 : en:3
00:25:40.832 : en:4
00:34:46.332 : en:5
00:43:21.665 : en:6
00:51:43.831 : en:7
01:00:55.289 : en:8
01:12:41.997 : en:9
01:23:29.913 : en:10
01:32:56.454 : en:11
01:42:46.037 : en:12

Subtitulos

Grupo: iNTENSO
Versión: WEB H264 720p
Tamaño: 3.4 GB
Video
ID : 1
Format : AVC
Format/Info : Advanced Video Codec
Format profile : [email protected]
Format settings : 2 Ref Frames
Format settings, CABAC : No
Format settings, Reference frames : 2 frames
Codec ID : V_MPEG4/ISO/AVC
Duration : 1 h 47 min
Bit rate : 4 091 kb/s
Width : 1 280 pixels
Height : 690 pixels
Display aspect ratio : 1.85:1
Frame rate mode : Constant
Frame rate : 24.000 FPS
Color space : YUV
Chroma subsampling : 4:2:0
Bit depth : 8 bits
Scan type : Progressive
Bits/(Pixel*Frame) : 0.193
Stream size : 3.08 GiB (91%)
Language : English
Default : Yes
Forced : No
Color range : Limited
Color primaries : BT.709
Transfer characteristics : BT.709
Matrix coefficients : BT.709

Audio
ID : 2
Format : AC-3
Format/Info : Audio Coding 3
Commercial name : Dolby Digital
Codec ID : A_AC3
Duration : 1 h 47 min
Bit rate mode : Constant
Bit rate : 384 kb/s
Channel(s) : 6 channels
Channel layout : L R C LFE Ls Rs
Sampling rate : 48.0 kHz
Frame rate : 31.250 FPS (1536 SPF)
Compression mode : Lossy
Stream size : 296 MiB (9%)
Language : English
Service kind : Complete Main
Default : Yes
Forced : No

Menu
00:00:00.000 : en:1
00:08:00.333 : en:2
00:18:13.541 : en:3
00:25:40.832 : en:4
00:34:46.332 : en:5
00:43:21.665 : en:6
00:51:43.831 : en:7
01:00:55.289 : en:8
01:12:41.997 : en:9
01:23:29.913 : en:10
01:32:56.454 : en:11
01:42:46.037 : en:12

Subtitulos

Grupo: TEPES
Versión: WEB-DL H264 1080p
Tamaño: 7.0 GB
Video
ID : 1
Format : AVC
Format/Info : Advanced Video Codec
Format profile : [email protected]
Format settings : CABAC / 4 Ref Frames
Format settings, CABAC : Yes
Format settings, Reference frames : 4 frames
Codec ID : V_MPEG4/ISO/AVC
Duration : 1 h 47 min
Bit rate mode : Constant
Bit rate : 8 717 kb/s
Nominal bit rate : 10 000 kb/s
Width : 1 920 pixels
Height : 1 040 pixels
Display aspect ratio : 1.85:1
Frame rate mode : Constant
Frame rate : 23.976 (24000/1001) FPS
Color space : YUV
Chroma subsampling : 4:2:0
Bit depth : 8 bits
Scan type : Progressive
Bits/(Pixel*Frame) : 0.182
Stream size : 6.54 GiB (93%)
Default : Yes
Forced : No
Color range : Limited
Color primaries : BT.709
Transfer characteristics : BT.709
Matrix coefficients : BT.709

Audio
ID : 2
Format : E-AC-3
Format/Info : Enhanced AC-3
Commercial name : Dolby Digital Plus
Codec ID : A_EAC3
Duration : 1 h 47 min
Bit rate mode : Constant
Bit rate : 640 kb/s
Channel(s) : 6 channels
Channel layout : L R C LFE Ls Rs
Sampling rate : 48.0 kHz
Frame rate : 31.250 FPS (1536 SPF)
Compression mode : Lossy
Stream size : 492 MiB (7%)
Language : English
Service kind : Complete Main
Default : Yes
Forced : No

Text #1
ID : 3
Format : UTF-8
Codec ID : S_TEXT/UTF8
Codec ID/Info : UTF-8 Plain Text
Duration : 1 h 39 min
Bit rate : 45 b/s
Count of elements : 1254
Stream size : 33.1 KiB (0%)
Language : English
Default : No
Forced : No

Text #2
ID : 4
Format : UTF-8
Codec ID : S_TEXT/UTF8
Codec ID/Info : UTF-8 Plain Text
Duration : 1 h 42 min
Bit rate : 46 b/s
Count of elements : 1359
Stream size : 34.9 KiB (0%)
Title : SDH
Language : English
Default : No
Forced : No

Subtitulos

Grupo: PiGNUS
Versión: BDRip x264 720p
Tamaño: 4.6 GB
Name: The.Nest.2020.720p.BluRay.x264-PiGNUS

Release date: 21-05-2021

IMDB link: https://www.imdb.com/title/tt8338762

Resolution: 1280x694
Audio: English AC3 6ch 640 kbps
Video: 5394 kbps, CRF 15.5
Source: 32000 kbps
Grupo: PiGNUS
Versión: BDRip x264 1080p
Tamaño: 13.2 GB
Name: The.Nest.2020.1080p.BluRay.x264-PiGNUS

Release date: 21-05-2021

IMDB link: https://www.imdb.com/title/tt8338762

Resolution: 1920x1040
Audio: English DTS-HD Master 6ch 2874 kbps
Video: 14603 kbps, CRF 16.5
Source: 32000 kbps
Trailer