78
PUNTOS
Calificar
CALIFICA
Calificar
Califica y/o escribe un comentario sobre la película.
Comentarios en el foroFORO

The Fugitive (1993)

La vida del doctor Richard Kimble, un reputado cirujano con una bella esposa y una lujosa casa en un elegante barrio de Chicago, se desmorona el día en que su mujer es brutalmente asesinada por un misterioso manco. Kimble es acusado del crimen y condenado a muerte. Mientras lo trasladan a la cárcel, el autobús donde viaja sufre un accidente que facilita la fuga de varios presos, entre ellos el propio Kimble. El detective Samuel Gerard consigue atrapar a todos los prófugos excepto al escurridizo Kimble. Una vez en libertad, Kimble sabe muy bien que si quiere probar su inocencia, tendrá que encontrar al misterioso manco, pero, al mismo tiempo, tendrá que eludir la implacable persecución del detective Gerard.
Director Andrew Davis
Actores Harrison Ford, Tommy Lee Jones, Sela Ward, Julianne Moore
Duración 130 min
Streaming (Servicio externo)
Grupo: FGT
Versión: BDRip x264 1080p
Tamaño: 12.1 GB
Video
ID : 1
Format : AVC
Format/Info : Advanced Video Codec
Format profile : [email protected]
Format settings : CABAC / 4 Ref Frames
Format settings, CABAC : Yes
Format settings, Reference frames : 4 frames
Codec ID : V_MPEG4/ISO/AVC
Duration : 2 h 10 min
Bit rate : 11.8 Mb/s
Width : 1 920 pixels
Height : 1 080 pixels
Display aspect ratio : 16:9
Frame rate mode : Constant
Frame rate : 23.976 FPS
Color space : YUV
Chroma subsampling : 4:2:0
Bit depth : 8 bits
Scan type : Progressive
Bits/(Pixel*Frame) : 0.237
Stream size : 10.5 GiB (87%)
Writing library : x264 core 138 r2356 a1d3d17
Encoding settings : cabac=1 / ref=4 / deblock=1:-3:-3 / analyse=0x3:0x113 / me=umh / subme=10 / psy=1 / psy_rd=1.00:0.05 / mixed_ref=1 / me_range=32 / chroma_me=1 / trellis=2 / 8x8dct=1 / cqm=0 / deadzone=21,11 / fast_pskip=0 / chroma_qp_offset=-2 / threads=18 / lookahead_threads=1 / sliced_threads=0 / nr=0 / decimate=1 / interlaced=0 / bluray_compat=0 / constrained_intra=0 / bframes=5 / b_pyramid=2 / b_adapt=2 / b_bias=0 / direct=3 / weightb=1 / open_gop=0 / weightp=2 / keyint=250 / keyint_min=23 / scenecut=40 / intra_refresh=0 / rc=2pass / mbtree=0 / bitrate=11795 / ratetol=1.0 / qcomp=0.70 / qpmin=0 / qpmax=69 / qpstep=4 / cplxblur=20.0 / qblur=0.5 / ip_ratio=1.40 / pb_ratio=1.30 / aq=2:0.90
Language : English
Default : Yes
Forced : No

Audio
ID : 2
Format : DTS
Format/Info : Digital Theater Systems
Codec ID : A_DTS
Duration : 2 h 10 min
Bit rate mode : Constant
Bit rate : 1 509 kb/s
Channel(s) : 6 channels
Channel layout : C L R Ls Rs LFE
Sampling rate : 48.0 kHz
Frame rate : 93.750 FPS (512 SPF)
Bit depth : 24 bits
Compression mode : Lossy
Stream size : 1.37 GiB (11%)
Language : English
Default : Yes
Forced : No

Subtitulos

Grupo: RARBG
Versión: BDRip H264 1080p
Tamaño: 2.5 GB
Video
ID : 1
Format : AVC
Format/Info : Advanced Video Codec
Format profile : [email protected]
Format settings : CABAC / 4 Ref Frames
Format settings, CABAC : Yes
Format settings, Reference frames : 4 frames
Codec ID : avc1
Codec ID/Info : Advanced Video Coding
Duration : 2 h 10 min
Bit rate : 2 500 kb/s
Width : 1 920 pixels
Height : 1 080 pixels
Display aspect ratio : 16:9
Frame rate mode : Constant
Frame rate : 23.976 (23976/1000) FPS
Color space : YUV
Chroma subsampling : 4:2:0
Bit depth : 8 bits
Scan type : Progressive
Bits/(Pixel*Frame) : 0.050
Stream size : 2.27 GiB (92%)
Writing library : x264 core 152 r2851M ba24899
Encoding settings : cabac=1 / ref=4 / deblock=1:-1:-1 / analyse=0x3:0x113 / me=umh / subme=9 / psy=1 / psy_rd=1.00:0.15 / mixed_ref=1 / me_range=24 / chroma_me=1 / trellis=2 / 8x8dct=1 / cqm=0 / deadzone=21,11 / fast_pskip=1 / chroma_qp_offset=-3 / threads=32 / lookahead_threads=4 / sliced_threads=0 / nr=0 / decimate=1 / interlaced=0 / bluray_compat=0 / constrained_intra=0 / bframes=3 / b_pyramid=2 / b_adapt=2 / b_bias=0 / direct=3 / weightb=1 / open_gop=0 / weightp=2 / keyint=250 / keyint_min=25 / scenecut=40 / intra_refresh=0 / rc_lookahead=50 / rc=2pass / mbtree=1 / bitrate=2500 / ratetol=1.0 / qcomp=0.60 / qpmin=0 / qpmax=69 / qpstep=4 / cplxblur=20.0 / qblur=0.5 / vbv_maxrate=31250 / vbv_bufsize=31250 / nal_hrd=none / filler=0 / ip_ratio=1.40 / aq=3:1.00
Encoded date : UTC 2018-09-25 21:08:56
Tagged date : UTC 2018-09-25 21:08:56
Codec configuration box : avcC

Audio
ID : 2
Format : AAC LC
Format/Info : Advanced Audio Codec Low Complexity
Codec ID : mp4a-40-2
Duration : 2 h 10 min
Bit rate mode : Constant
Bit rate : 224 kb/s
Channel(s) : 6 channels
Channel layout : C L R Ls Rs LFE
Sampling rate : 48.0 kHz
Frame rate : 46.875 FPS (1024 SPF)
Compression mode : Lossy
Stream size : 209 MiB (8%)
Language : English
Default : Yes
Alternate group : 1
Encoded date : UTC 2018-09-25 21:08:56
Tagged date : UTC 2018-09-25 21:08:56

Subtitulos

Grupo: CHD
Versión: BDRip x264 1080p
Tamaño: 13.0 GB
The.Fugitive.1993.BluRay.1080p.DTS.x264-CHD

RELEASE DATE....: 09/08/2013
THEATRE DATE....: 1993
iMDB URL........: http://www.imdb.com/title/tt0106977
iMDB RATiNG.....: 7.8/10 from 159,399 users 
GENRE...........: Action|Adventure|Crime  
SOURCE..........: 1080p CEE Blu-ray AVC DTS-HD MA 5.1-Mont
ViDEO BiTRATE...: x264 @ 11795 Kbps 
FRAME RATE......: 23.976 fps
AUDiO 1.........: ENG DTS-CORE 5.1CH @ 1536 Kbps
RUNTiME 1.......: 2:10:16.683 (h:m:s.ms)
ASPECT RATiO....: 1.78: 1
RESOLUTiON......: 1920x1080
Subtitles.......: Presentation Graphics Chinese 20,958 kbps
FilE SiZE.......: 12G
Encoder.........: [email protected]
Trailer