58
PUNTOS
Calificar
CALIFICA
Calificar
Califica y/o escribe un comentario sobre la película.
Comentarios en el foroFORO

Waiting for the Barbarians (2020)

Un magistrado británico en una peque?a ciudad colonial comienza a cuestionar su lealtad al Imperio mientras intenta ignorar una guerra inevitable contra los llamados “bárbaros".
Director Ciro Guerra
Actores Mark Rylance, Johnny Depp, Robert Pattinson, Gana Bayarsaikhan
Duración 112 min
Streaming (Servicio externo)
Grupo: SURCODE
Versión: BDRip x264 1080p
Tamaño: 10.6 GB
SURCODE PRESENTS....

Waiting for the Barbarians (2019)

VIDEO_________: 1920 x 802 (crf17 @ 11.0 mbps)
VIDEO_SOURCE__: 1920 x 1080 (@ 31.2 mbps)
AUDIO_________: DTS-HD 5.1 2046 kbs
SUBTITEL______: eng forced / ger
IMDB__________: www.imdb.com/title/tt6149154/

Subtitulos

Grupo: SURCODE
Versión: BDRip x264 720p
Tamaño: 3.3 GB
SURCODE PRESENTS....

Waiting for the Barbarians (2019)

VIDEO_________: 1280 x 534 (crf17 @ 3540 kbps)
VIDEO_SOURCE__: 1920 x 1080 (@ 31.2 mbps)
AUDIO_________: AC3 5.1 640 kbs
SUBTITEL______: eng forced / ger
IMDB__________: www.imdb.com/title/tt6149154/

Subtitulos

Grupo: NOGRP
Versión: BDRip x264 1080p
Tamaño: 8.6 GB
Video
ID : 1
Format : AVC
Format/Info : Advanced Video Codec
Format profile : [email protected]
Format settings : CABAC / 5 Ref Frames
Format settings, CABAC : Yes
Format settings, Reference frames : 5 frames
Codec ID : V_MPEG4/ISO/AVC
Duration : 1 h 53 min
Bit rate : 9 373 kb/s
Width : 1 920 pixels
Height : 800 pixels
Display aspect ratio : 2.40:1
Frame rate mode : Constant
Frame rate : 23.976 (24000/1001) FPS
Color space : YUV
Chroma subsampling : 4:2:0
Bit depth : 8 bits
Scan type : Progressive
Bits/(Pixel*Frame) : 0.255
Stream size : 7.42 GiB (86%)
Writing library : x264 core 152 r2851 ba24899
Encoding settings : cabac=1 / ref=5 / deblock=1:-3:-3 / analyse=0x3:0x113 / me=umh / subme=10 / psy=1 / psy_rd=1.00:0.00 / mixed_ref=1 / me_range=24 / chroma_me=1 / trellis=2 / 8x8dct=1 / cqm=0 / deadzone=21,11 / fast_pskip=1 / chroma_qp_offset=-2 / threads=24 / lookahead_threads=4 / sliced_threads=0 / nr=0 / decimate=1 / interlaced=0 / bluray_compat=0 / constrained_intra=0 / bframes=8 / b_pyramid=2 / b_adapt=2 / b_bias=0 / direct=3 / weightb=1 / open_gop=0 / weightp=2 / keyint=230 / keyint_min=23 / scenecut=40 / intra_refresh=0 / rc_lookahead=60 / rc=2pass / mbtree=1 / bitrate=9373 / ratetol=1.0 / qcomp=0.60 / qpmin=0 / qpmax=69 / qpstep=4 / cplxblur=20.0 / qblur=0.5 / vbv_maxrate=62500 / vbv_bufsize=78125 / nal_hrd=none / filler=0 / ip_ratio=1.40 / aq=1:1.00
Default : Yes
Forced : No

Audio
ID : 2
Format : DTS
Format/Info : Digital Theater Systems
Codec ID : A_DTS
Duration : 1 h 53 min
Bit rate mode : Constant
Bit rate : 1 509 kb/s
Channel(s) : 6 channels
Channel layout : C L R Ls Rs LFE
Sampling rate : 48.0 kHz
Frame rate : 93.750 FPS (512 SPF)
Bit depth : 24 bits
Compression mode : Lossy
Stream size : 1.20 GiB (14%)
Language : English
Default : No
Forced : No

Text
ID : 3
Format : UTF-8
Codec ID : S_TEXT/UTF8
Codec ID/Info : UTF-8 Plain Text
Duration : 1 h 52 min
Bit rate : 31 b/s
Count of elements : 1037
Stream size : 25.6 KiB (0%)
Language : English
Default : Yes
Forced : No

Menu
00:00:00.000 : en:00:00:00.000
00:08:23.670 : en:00:08:23.670
00:17:46.440 : en:00:17:46.440
00:29:12.000 : en:00:29:12.000
00:38:37.440 : en:00:38:37.440
00:46:11.769 : en:00:46:11.769
00:57:13.221 : en:00:57:13.221
01:04:04.299 : en:01:04:04.299
01:13:22.982 : en:01:13:22.982
01:19:39.942 : en:01:19:39.942
01:30:58.620 : en:01:30:58.620
01:40:57.051 : en:01:40:57.051
Trailer