72
PUNTOS
Calificar
CALIFICA
Calificar
Califica y/o escribe un comentario sobre la película.
Comentarios en el foroFORO

Als Hitler das rosa Kaninchen stahl (2019)

Anna tiene nueve años y vive felizmente en el Berlín de los años 30 como cualquier otra niña de su edad. Pero el inminente ascenso de Hitler al poder está a punto de cambiarlo todo para ella y su familia, de origen judío y deciden que lo mejor es abandonar el país. Anna y su familia huyen a Suiza.
Director Caroline Link
Actores Riva Krymalowski, Marinus Hohmann, Carla Juri, Oliver Masucci
Duración 119 min
Streaming (Servicio externo)
Grupo: FGT
Versión: BDRip x264 1080p
Tamaño: 10.8 GB
Video
ID : 1
Format : AVC
Format/Info : Advanced Video Codec
Format profile : [email protected]
Format settings : CABAC / 4 Ref Frames
Format settings, CABAC : Yes
Format settings, Reference frames : 4 frames
Codec ID : V_MPEG4/ISO/AVC
Duration : 1 h 59 min
Bit rate : 11.5 Mb/s
Width : 1 920 pixels
Height : 800 pixels
Display aspect ratio : 2.40:1
Frame rate mode : Constant
Frame rate : 23.976 (24000/1001) FPS
Color space : YUV
Chroma subsampling : 4:2:0
Bit depth : 8 bits
Scan type : Progressive
Bits/(Pixel*Frame) : 0.312
Stream size : 9.56 GiB (88%)
Title : When.Hitler.Stole.Pink.Rabbit.2019.GERMAN.1080p.BluRay.x264.DTS-FGT
Writing library : x264 core 148 r2748 97eaef2
Encoding settings : cabac=1 / ref=4 / deblock=1:-2:-2 / analyse=0x3:0x113 / me=umh / subme=9 / psy=1 / psy_rd=1.00:0.15 / mixed_ref=1 / me_range=16 / chroma_me=1 / trellis=2 / 8x8dct=1 / cqm=0 / deadzone=21,11 / fast_pskip=1 / chroma_qp_offset=-3 / threads=24 / lookahead_threads=3 / sliced_threads=0 / nr=0 / decimate=1 / interlaced=0 / bluray_compat=0 / constrained_intra=0 / bframes=3 / b_pyramid=2 / b_adapt=1 / b_bias=0 / direct=3 / weightb=1 / open_gop=0 / weightp=2 / keyint=250 / keyint_min=25 / scenecut=40 / intra_refresh=0 / rc_lookahead=50 / rc=2pass / mbtree=1 / bitrate=11500 / ratetol=1.0 / qcomp=0.60 / qpmin=0 / qpmax=69 / qpstep=4 / cplxblur=20.0 / qblur=0.5 / vbv_maxrate=31250 / vbv_bufsize=31250 / nal_hrd=none / filler=0 / ip_ratio=1.40 / aq=1:1.00
Language : German
Default : Yes
Forced : No

Audio
ID : 2
Format : DTS
Format/Info : Digital Theater Systems
Codec ID : A_DTS
Duration : 1 h 59 min
Bit rate mode : Constant
Bit rate : 1 509 kb/s
Channel(s) : 6 channels
Channel layout : C L R Ls Rs LFE
Sampling rate : 48.0 kHz
Frame rate : 93.750 FPS (512 SPF)
Bit depth : 24 bits
Compression mode : Lossy
Stream size : 1.25 GiB (12%)
Title : When.Hitler.Stole.Pink.Rabbit.2019.GERMAN.1080p.BluRay.x264.DTS-FGT
Language : German
Default : Yes
Forced : No

Text
ID : 3
Format : UTF-8
Codec ID : S_TEXT/UTF8
Codec ID/Info : UTF-8 Plain Text
Duration : 1 h 58 min
Bit rate : 50 b/s
Count of elements : 1403
Stream size : 43.4 KiB (0%)
Language : English
Default : Yes
Forced : No

Menu
00:00:00.000 : en:Chapter 01
00:09:09.423 : en:Chapter 02
00:20:23.556 : en:Chapter 03
00:29:06.994 : en:Chapter 04
00:37:18.652 : en:Chapter 05
00:45:42.907 : en:Chapter 06
00:55:35.248 : en:Chapter 07
01:05:30.717 : en:Chapter 08
01:17:52.583 : en:Chapter 09
01:28:10.577 : en:Chapter 10
01:40:14.382 : en:Chapter 11
01:47:49.712 : en:Chapter 12
01:53:22.878 : en:End Credits
Trailer