72
PUNTOS
Calificar
CALIFICA
Calificar
Califica y/o escribe un comentario sobre la película.
Comentarios en el foroFORO

J'accuse (2019)

En 1894, el capitán francés Alfred Dreyfus, un joven oficial judío, es acusado de traición por espiar para Alemania y condenado a cadena perpetua en la Isla del Diablo, en la Guayana Francesa. Entre los testigos que hicieron posible esta humillación se encuentra el coronel Georges Picquart, encargado de liderar la unidad de contrainteligencia que descubrió al espía. Pero cuando Picquart se entera de que se siguen pasando secretos militares a los alemanes, se adentrará en un peligroso laberinto de mentiras y corrupción, poniendo en peligro su honor y su vida.
Director Roman Polanski
Actores Louis Garrel, Christophe Maratier, Pierre Poirot
Duración 132 min
País France, Italy
Streaming (Servicio externo)
Grupo: EXTREME
Versión: BDRip x264 720p DTS
Tamaño: 5.5 GB
J.Accuse.2019.FRENCH.720p.BluRay.DTS.x264-EXTREME.mkv
Format                                   : Matroska
Format version                           : Version 4
File size                                : 5.53 GiB
Duration                                 : 2 h 6 min
Overall bit rate                         : 6 247 kb/s
Encoded date                             : UTC 2020-03-12 07:07:50
Writing application                      : mkvmerge v41.0.0 ('Smarra') 64-bit
Writing library                          : libebml v1.3.9 + libmatroska v1.5.2

Video
ID                                       : 3
Format                                   : AVC
Format/Info                              : Advanced Video Codec
Format profile                           : [email protected]
Format settings                          : CABAC / 4 Ref Frames
Format settings, CABAC                   : Yes
Format settings, ReFrames                : 4 frames
Codec ID                                 : V_MPEG4/ISO/AVC
Duration                                 : 2 h 6 min
Bit rate                                 : 4 737 kb/s
Width                                    : 1 280 pixels
Height                                   : 696 pixels
Display aspect ratio                     : 1.85:1
Frame rate mode                          : Constant
Frame rate                               : 25.000 FPS
Color space                              : YUV
Chroma subsampling                       : 4:2:0
Bit depth                                : 8 bits
Scan type                                : Progressive
Bits/(Pixel*Frame)                       : 0.213
Stream size                              : 4.20 GiB (76%)
Writing library                          : x264 core 157 r2935 545de2f
Encoding settings                        : cabac=1 / ref=3 / deblock=1:-1:-1 / analyse=0x3:0x113 / me=hex / subme=7 / psy=1 / psy_rd=1.00:0.15 / mixed_ref=1 / me_range=16 / chroma_me=1 / trellis=1 / 8x8dct=1 / cqm=0 / deadzone=21,11 / fast_pskip=1 / chroma_qp_offset=-3 / threads=22 / lookahead_threads=3 / sliced_threads=0 / nr=0 / decimate=1 / interlaced=0 / bluray_compat=0 / constrained_intra=0 / bframes=3 / b_pyramid=2 / b_adapt=1 / b_bias=0 / direct=1 / weightb=1 / open_gop=0 / weightp=2 / keyint=250 / keyint_min=25 / scenecut=40 / intra_refresh=0 / rc_lookahead=40 / rc=2pass / mbtree=1 / bitrate=4737 / ratetol=1.0 / qcomp=0.60 / qpmin=0 / qpmax=69 / qpstep=4 / cplxblur=20.0 / qblur=0.5 / vbv_maxrate=62500 / vbv_bufsize=78125 / nal_hrd=none / filler=0 / ip_ratio=1.40 / aq=1:1.00
Default                                  : Yes
Forced                                   : No

Audio
ID                                       : 2
Format                                   : DTS
Format/Info                              : Digital Theater Systems
Codec ID                                 : A_DTS
Duration                                 : 2 h 6 min
Bit rate mode                            : Constant
Bit rate                                 : 1 509 kb/s
Channel(s)                               : 6 channels
Channel layout                           : C L R Ls Rs LFE
Sampling rate                            : 48.0 kHz
Frame rate                               : 93.750 FPS (512 SPF)
Bit depth                                : 16 bits
Compression mode                         : Lossy
Stream size                              : 1.34 GiB (24%)
Language                                 : French
Default                                  : Yes
Forced                                   : No

Text
ID                                       : 1
Format                                   : UTF-8
Codec ID                                 : S_TEXT/UTF8
Codec ID/Info                            : UTF-8 Plain Text
Duration                                 : 1 h 59 min
Bit rate                                 : 0 b/s
Count of elements                        : 10
Stream size                              : 301 Bytes (0%)
Title                                    : Forced
Language                                 : French
Default                                  : Yes
Forced                                   : No

Menu
00:00:00.000                             : :Capitolo 01
00:10:08.320                             : :Capitolo 02
00:20:52.760                             : :Capitolo 03
00:30:57.520                             : :Capitolo 04
00:41:47.000                             : :Capitolo 05
00:52:59.600                             : :Capitolo 06
01:01:30.080                             : :Capitolo 07
01:12:24.880                             : :Capitolo 08
01:24:54.520                             : :Capitolo 09
01:34:18.880                             : :Capitolo 10
01:45:12.200                             : :Capitolo 11
01:55:24.840                             : :Capitolo 12

Subtitulos

Grupo: EXTREME
Versión: BDRip x264 1080p DTS
Tamaño: 8.8 GB
J.Accuse.2019.FRENCH.1080p.BluRay.DTS.x264-EXTREME.mkv
Format                                   : Matroska
Format version                           : Version 4
File size                                : 8.75 GiB
Duration                                 : 2 h 6 min
Overall bit rate                         : 9 880 kb/s
Encoded date                             : UTC 2020-03-12 07:09:00
Writing application                      : mkvmerge v41.0.0 ('Smarra') 64-bit
Writing library                          : libebml v1.3.9 + libmatroska v1.5.2

Video
ID                                       : 3
Format                                   : AVC
Format/Info                              : Advanced Video Codec
Format profile                           : [email protected]
Format settings                          : CABAC / 4 Ref Frames
Format settings, CABAC                   : Yes
Format settings, ReFrames                : 4 frames
Codec ID                                 : V_MPEG4/ISO/AVC
Duration                                 : 2 h 6 min
Bit rate                                 : 8 372 kb/s
Width                                    : 1 920 pixels
Height                                   : 1 040 pixels
Display aspect ratio                     : 1.85:1
Frame rate mode                          : Constant
Frame rate                               : 25.000 FPS
Color space                              : YUV
Chroma subsampling                       : 4:2:0
Bit depth                                : 8 bits
Scan type                                : Progressive
Bits/(Pixel*Frame)                       : 0.168
Stream size                              : 7.41 GiB (85%)
Writing library                          : x264 core 157 r2935 545de2f
Encoding settings                        : cabac=1 / ref=3 / deblock=1:-1:-1 / analyse=0x3:0x113 / me=hex / subme=7 / psy=1 / psy_rd=1.00:0.15 / mixed_ref=1 / me_range=16 / chroma_me=1 / trellis=1 / 8x8dct=1 / cqm=0 / deadzone=21,11 / fast_pskip=1 / chroma_qp_offset=-3 / threads=32 / lookahead_threads=5 / sliced_threads=0 / nr=0 / decimate=1 / interlaced=0 / bluray_compat=0 / constrained_intra=0 / bframes=3 / b_pyramid=2 / b_adapt=1 / b_bias=0 / direct=1 / weightb=1 / open_gop=0 / weightp=2 / keyint=250 / keyint_min=25 / scenecut=40 / intra_refresh=0 / rc_lookahead=40 / rc=2pass / mbtree=1 / bitrate=8372 / ratetol=1.0 / qcomp=0.60 / qpmin=0 / qpmax=69 / qpstep=4 / cplxblur=20.0 / qblur=0.5 / vbv_maxrate=62500 / vbv_bufsize=78125 / nal_hrd=none / filler=0 / ip_ratio=1.40 / aq=1:1.00
Default                                  : Yes
Forced                                   : No

Audio
ID                                       : 2
Format                                   : DTS
Format/Info                              : Digital Theater Systems
Codec ID                                 : A_DTS
Duration                                 : 2 h 6 min
Bit rate mode                            : Constant
Bit rate                                 : 1 509 kb/s
Channel(s)                               : 6 channels
Channel layout                           : C L R Ls Rs LFE
Sampling rate                            : 48.0 kHz
Frame rate                               : 93.750 FPS (512 SPF)
Bit depth                                : 16 bits
Compression mode                         : Lossy
Stream size                              : 1.34 GiB (15%)
Language                                 : French
Default                                  : Yes
Forced                                   : No

Text
ID                                       : 1
Format                                   : UTF-8
Codec ID                                 : S_TEXT/UTF8
Codec ID/Info                            : UTF-8 Plain Text
Duration                                 : 1 h 59 min
Bit rate                                 : 0 b/s
Count of elements                        : 10
Stream size                              : 301 Bytes (0%)
Title                                    : Forced
Language                                 : French
Default                                  : Yes
Forced                                   : No

Menu
00:00:00.000                             : :Capitolo 01
00:10:08.320                             : :Capitolo 02
00:20:52.760                             : :Capitolo 03
00:30:57.520                             : :Capitolo 04
00:41:47.000                             : :Capitolo 05
00:52:59.600                             : :Capitolo 06
01:01:30.080                             : :Capitolo 07
01:12:24.880                             : :Capitolo 08
01:24:54.520                             : :Capitolo 09
01:34:18.880                             : :Capitolo 10
01:45:12.200                             : :Capitolo 11
01:55:24.840                             : :Capitolo 12

Subtitulos

Trailer