76
PUNTOS
Calificar
CALIFICA
Calificar
Califica y/o escribe un comentario sobre la película.
Comentarios en el foroFORO

Es esmu seit (2016)

Para no perder su hogar, Raya, de 17 años, y su hermano pequeño, ocultan la muerte de su abuela. Raya trata todos los trucos posibles para hacer parecer que está viva, mientras al mismo tiempo se permite alimentar sus sentimientos hacia su profesor de inglés. Pero a pesar de todos los esfuerzos realizados, la situación se va de sus manos. Raya espera la ayuda de su madre en la lejana Londres.
Director Renars Vimba
Actores Elina Vaska, Andzejs Lilientals, Edgars Samitis, Ruta Birgere
Duración 106 min
Streaming (Servicio externo)
Grupo: RIYE
Versión: WebRip x264 1080p
Tamaño: 2.5 GB
General
Unique ID : 285213727669901240543768107263013959145 (0xD6922A76421953A8543625ECE17435E9)
Complete name : Mellow.Mud.2016.Renars.Vimba.720p.WEBRip.ACC.x264.RIYE.mkv
Format : Matroska
Format version : Version 4 / Version 2
File size : 2.30 GiB
Duration : 1h 46mn
Overall bit rate : 3 095 Kbps
Encoded date : UTC 2018-04-24 00:57:46
Writing application : mkvmerge v17.0.0 ('Be Ur Friend') 64-bit
Writing library : libebml v1.3.5 + libmatroska v1.4.8

Video
ID : 1
Format : AVC
Format/Info : Advanced Video Codec
Format profile : [email protected]
Format settings, CABAC : Yes
Format settings, ReFrames : 4 frames
Codec ID : V_MPEG4/ISO/AVC
Duration : 1h 46mn
Bit rate : 2 790 Kbps
Width : 1 920 pixels
Height : 804 pixels
Display aspect ratio : 2.40:1
Frame rate mode : Constant
Frame rate : 25.000 fps
Color space : YUV
Chroma subsampling : 4:2:0
Bit depth : 8 bits
Scan type : Progressive
Bits/(Pixel*Frame) : 0.072
Stream size : 2.07 GiB (90%)
Default : Yes
Forced : No
Color range : Limited
Color primaries : BT.709
Transfer characteristics : BT.709
Matrix coefficients : BT.709

Audio
ID : 2
Format : AAC
Format/Info : Advanced Audio Codec
Format profile : LC
Codec ID : A_AAC
Duration : 1h 46mn
Bit rate : 302 Kbps
Channel(s) : 2 channels
Channel positions : Front: L R
Sampling rate : 48.0 KHz
Frame rate : 46.875 fps (1024 spf)
Compression mode : Lossy
Delay relative to video : -199ms
Stream size : 230 MiB (10%)
Default : Yes
Forced : No

Subtitulos

Trailer