74
PUNTOS
Calificar
CALIFICA
Calificar
Califica y/o escribe un comentario sobre la película.
Comentarios en el foroFORO

Der Hauptmann (2018)

En los últimos momentos de la II Guerra Mundial, en plena caída del III Reich, un soldado de 19 años, andrajoso y hambriento, roba el uniforme de un capitán nazi. Haciéndose pasar por un oficial, reúne a un grupo de desertores y comienza a matar y saquear a su paso a través de la golpeada Alemania nazi, descubriendo la monstruosa identidad de aquellos de los que trata de escapar.
Director Robert Schwentke
Actores Max Hubacher, Milan Peschel, Frederick Lau, Bernd Hölscher
Duración 118 min
Streaming (Servicio externo)
Grupo: HANDJOB
Versión: BDRip x264 720p AC3
Tamaño: 5.1 GB
General
Unique ID : 246487652856852173028626963044187455091 (0xB96FCB8F55D905BD884DA27375273E73)
Complete name : Der.Hauptmann.AKA.The.Captain.2017.720p.BluRay.x264-HANDJOB.mkv
Format : Matroska
Format version : Version 4
File size : 5.05 GiB
Duration : 1 h 59 min
Overall bit rate : 6 061 kb/s
Movie name : Der Hauptmann AKA The Captain [2017] 720p BluRay - HJ
Encoded date : UTC 2018-10-11 12:40:15
Writing application : mkvmerge v27.0.0 ('Metropolis') 64-bit
Writing library : libebml v1.3.6 + libmatroska v1.4.9

Video
ID : 1
Format : AVC
Format/Info : Advanced Video Codec
Format profile : [email protected]
Format settings : CABAC / 12 Ref Frames
Format settings, CABAC : Yes
Format settings, RefFrames : 12 frames
Codec ID : V_MPEG4/ISO/AVC
Duration : 1 h 59 min
Bit rate : 5 419 kb/s
Width : 1 280 pixels
Height : 536 pixels
Display aspect ratio : 2.40:1
Frame rate mode : Constant
Frame rate : 23.976 (24000/1001) FPS
Color space : YUV
Chroma subsampling : 4:2:0
Bit depth : 8 bits
Scan type : Progressive
Bits/(Pixel*Frame) : 0.329
Stream size : 4.52 GiB (89%)
Writing library : x264 core 155 r2901 7d0ff22
Encoding settings : cabac=1 / ref=12 / deblock=1:-3:-3 / analyse=0x3:0x133 / me=umh / subme=10 / psy=1 / psy_rd=1.00:0.00 / mixed_ref=1 / me_range=32 / chroma_me=1 / trellis=2 / 8x8dct=1 / cqm=0 / deadzone=21,11 / fast_pskip=0 / chroma_qp_offset=-2 / threads=17 / lookahead_threads=4 / sliced_threads=0 / nr=0 / decimate=0 / interlaced=0 / bluray_compat=0 / constrained_intra=0 / bframes=16 / b_pyramid=2 / b_adapt=2 / b_bias=0 / direct=3 / weightb=1 / open_gop=0 / weightp=1 / keyint=240 / keyint_min=24 / scenecut=40 / intra_refresh=0 / rc_lookahead=60 / rc=crf / mbtree=0 / crf=13.5 / qcomp=0.60 / qpmin=0 / qpmax=69 / qpstep=4 / vbv_maxrate=62500 / vbv_bufsize=78125 / crf_max=0.0 / nal_hrd=none / filler=0 / ip_ratio=1.40 / pb_ratio=1.30 / aq=2:1.00
Default : Yes
Forced : No
Color range : Limited
Color primaries : BT.709
Transfer characteristics : BT.709
Matrix coefficients : BT.709

Audio
ID : 2
Format : AC-3
Format/Info : Audio Coding 3
Commercial name : Dolby Digital
Codec ID : A_AC3
Duration : 1 h 59 min
Bit rate mode : Constant
Bit rate : 640 kb/s
Channel(s) : 6 channels
Channel layout : L R C LFE Ls Rs
Sampling rate : 48.0 kHz
Frame rate : 31.250 FPS (1536 SPF)
Bit depth : 16 bits
Compression mode : Lossy
Stream size : 547 MiB (11%)
Language : German
Service kind : Complete Main
Default : Yes
Forced : No

Text
ID : 3
Format : UTF-8
Codec ID : S_TEXT/UTF8
Codec ID/Info : UTF-8 Plain Text
Duration : 1 h 54 min
Bit rate : 33 b/s
Count of elements : 853
Stream size : 28.3 KiB (0%)
Language : English
Default : Yes
Forced : No

Menu
00:00:00.000 : :Chapter 1
00:08:22.335 : :Chapter 2
00:16:57.517 : :Chapter 3
00:24:09.907 : :Chapter 4
00:36:53.795 : :Chapter 5
00:47:40.524 : :Chapter 6
00:58:52.821 : :Chapter 7
01:09:22.700 : :Chapter 8
01:20:07.011 : :Chapter 9
01:32:54.444 : :Chapter 10
01:44:01.193 : :Chapter 11
01:50:09.561 : :Chapter 12

Subtitulos

Grupo: WiDE
Versión: BDRip x264 AAC REPACK
Tamaño: 600 MB
The.Captain.2017.REPACK.BDRip.x264-WiDE

REL. DATE: 01/10/2019
RESOLUTiON: 720x302
AUDiO: 160 VBR AAC Stero German
SUBTiTLES: English
RUNTiME: 120 min
FORMAT: x264
SOURCE: Retail Blu-Ray
FiLES: 43x15mb

GENRE      : Drama  History  War
iMDB Link  : https://www.imdb.com/title/tt6763252/
iMDB RATiNG: 7.4/10

Enjoy!

....NOTES....

previous release is out of sync

Subtitulos

Grupo: BRMP
Versión: BDRip x264 720p REPACK DTS
Tamaño: 5.5 GB
The.Captain.2017.REPACK.720p.BluRay.x264-BRMP

RELEASE INFO

RELEASE DATE            < 01/10/2019

BITRATE       < 5,042 Kbps
VIDEO     RESOLUTION    < 1280x536
ASPECT        < 2.39:1

FORMAT        < DTS
AUDIO     BITRATE       < 1509 kbps
LANGUAGE      < GERMAN

SUBTITLES               < ENGLISH

LENGTH                  < 120 min

FILES                   < 59x100mb

GENRE         < Drama  History  War
INFO      IMDB RATING   < 7.4/10  3,841 votes
IMDB URL      < https://www.imdb.com/title/tt6763252/

NOTES

Previous release was out of sync.

Subtitulos

Grupo: BRMP
Versión: BDRip x264 1080p DTS
Tamaño: 8.7 GB
The.Captain.2017.1080p.BluRay.x264-BRMP

RELEASE INFO

RELEASE DATE            < 01/10/2019

BITRATE       < 8,976 Kbps
VIDEO     RESOLUTION    < 1920x808
ASPECT        < 2.38:1

FORMAT        < DTS
AUDIO     BITRATE       < 1509 kbps
LANGUAGE      < GERMAN

SUBTITLES               < ENGLISH

LENGTH                  < 120 min

FILES                   < 94x100mb

GENRE         < Drama  History  War
INFO      IMDB RATING   < 7.4/10  3,841 votes
IMDB URL      < https://www.imdb.com/title/tt6763252/

Subtitulos

Trailer