65
PUNTOS
Calificar
CALIFICA
Calificar
Califica y/o escribe un comentario sobre la película.
Comentarios en el foroFORO

Win It All (2017)

El endeudado jugador Eddie Garrett (Jake Johnson) acepta vigilar una bolsa de un conocido que va a entrar en prisión. Cuando descubre que dentro de la bolsa hay una gran cantidad de dinero, Eddie no resiste la tentación y paga con ella sus deudas. Pero un día el dueño de la bolsa sale de la cárcel.
Director Joe Swanberg
Actores Jake Johnson, Rony Shemon, Morgan Ng
Duración 88 min
País USA
Streaming (Servicio externo)
Grupo: EVO
Versión: HDRip XviD AC3
Tamaño: 1.4 GB
Win.it.All.2017.HDRip.XviD.AC3-EVO

SOURCE: DAWGS - Thanks!
ViDEO: 2000 Kbps
RESOLUTiON: 720x304
RUNTiME: 1h25m33sec
SUBTiTLES: No.
AUDiO: 192 Kbps AC3 2.0
LANGUAGE: ENGLiSH
GREETS: KING_DVD
NOTES: Enjoy.

Subtitulos

Grupo: RARBG
Versión: WEBRip x264 AAC
Tamaño: 775 MB
Win.It.All.2017.WEBRip.x264-RARBG

Video
ID                                       : 1
Format                                   : AVC
Format/Info                              : Advanced Video Codec
Format profile                           : High@L3.1
Format settings, CABAC                   : Yes
Format settings, ReFrames                : 5 frames
Codec ID                                 : avc1
Codec ID/Info                            : Advanced Video Coding
Duration                                 : 1 h 28 min
Bit rate                                 : 1 100 kb/s
Width                                    : 720 pixels
Height                                   : 306 pixels
Display aspect ratio                     : 2.35:1
Original display aspect ratio            : 2.35:1
Frame rate mode                          : Constant
Frame rate                               : 23.976 (24000/1001) FPS
Color space                              : YUV
Chroma subsampling                       : 4:2:0
Bit depth                                : 8 bits
Scan type                                : Progressive
Bits/(Pixel*Frame)                       : 0.208
Stream size                              : 683 MiB (89%)
Title                                    : RARBG.COM - Win.It.All.2017.WEBRip.x264-RARBG
Writing library                          : x264 core 148 r2638M 7599210
Encoding settings                        : cabac=1 / ref=5 / deblock=1:-1:-1 / analyse=0x3:0x113 / me=umh / subme=9 / psy=1 / psy_rd=1.00:0.15 / mixed_ref=1 / me_range=16 / chroma_me=1 / trellis=2 / 8x8dct=1 / cqm=0 / deadzone=21,11 / fast_pskip=1 / chroma_qp_offset=-3 / threads=10 / lookahead_threads=1 / sliced_threads=0 / nr=0 / decimate=1 / interlaced=0 / bluray_compat=0 / constrained_intra=0 / bframes=3 / b_pyramid=2 / b_adapt=2 / b_bias=0 / direct=3 / weightb=1 / open_gop=0 / weightp=2 / keyint=250 / keyint_min=23 / scenecut=40 / intra_refresh=0 / rc_lookahead=50 / rc=abr / mbtree=1 / bitrate=1100 / ratetol=1.0 / qcomp=0.60 / qpmin=0 / qpmax=69 / qpstep=4 / ip_ratio=1.40 / aq=1:1.00
Encoded date                             : UTC 2017-05-13 14:43:58
Tagged date                              : UTC 2017-05-13 14:43:58

Audio
ID                                       : 2
Format                                   : AAC
Format/Info                              : Advanced Audio Codec
Format profile                           : LC
Codec ID                                 : 40
Duration                                 : 1 h 28 min
Duration_LastFrame                       : -11 ms
Bit rate mode                            : Constant
Bit rate                                 : 128 kb/s
Channel(s)                               : 2 channels
Channel positions                        : Front: L R
Sampling rate                            : 48.0 kHz
Frame rate                               : 46.875 FPS (1024 spf)
Compression mode                         : Lossy
Stream size                              : 81.5 MiB (11%)
Title                                    : RARBG.COM - Win.It.All.2017.WEBRip.x264-RARBG
Language                                 : English
Default                                  : Yes
Alternate group                          : 1
Encoded date                             : UTC 2017-05-13 14:43:58
Tagged date                              : UTC 2017-05-13 14:43:58

Subtitulos

Grupo: RARBG
Versión: WEBRip x264 720p AC3
Tamaño: 10.1 GB
Win.It.All.2017.720p.WEBRip.x264-RARBG

Video
ID                                       : 1
Format                                   : AVC
Format/Info                              : Advanced Video Codec
Format profile                           : High@L4.1
Format settings, CABAC                   : Yes
Format settings, ReFrames                : 4 frames
Codec ID                                 : V_MPEG4/ISO/AVC
Duration                                 : 1 h 28 min
Bit rate                                 : 15.5 Mb/s
Width                                    : 1 280 pixels
Height                                   : 546 pixels
Display aspect ratio                     : 2.35:1
Frame rate mode                          : Constant
Frame rate                               : 23.976 (24000/1001) FPS
Color space                              : YUV
Chroma subsampling                       : 4:2:0
Bit depth                                : 8 bits
Scan type                                : Progressive
Bits/(Pixel*Frame)                       : 0.925
Stream size                              : 9.63 GiB (96%)
Title                                    : RARBG.COM - Win.It.All.2017.720p.WEBRip.x264-RARBG
Writing library                          : x264 core 148 r2638M 7599210
Encoding settings                        : cabac=1 / ref=4 / deblock=1:-1:-1 / analyse=0x3:0x113 / me=umh / subme=9 / psy=1 / psy_rd=1.00:0.15 / mixed_ref=1 / me_range=16 / chroma_me=1 / trellis=2 / 8x8dct=1 / cqm=0 / deadzone=21,11 / fast_pskip=1 / chroma_qp_offset=-3 / threads=12 / lookahead_threads=1 / sliced_threads=0 / nr=0 / decimate=1 / interlaced=0 / bluray_compat=0 / constrained_intra=0 / bframes=3 / b_pyramid=2 / b_adapt=2 / b_bias=0 / direct=3 / weightb=1 / open_gop=0 / weightp=2 / keyint=250 / keyint_min=23 / scenecut=40 / intra_refresh=0 / rc_lookahead=50 / rc=crf / mbtree=1 / crf=17.0 / qcomp=0.60 / qpmin=0 / qpmax=69 / qpstep=4 / ip_ratio=1.40 / aq=1:1.00
Default                                  : Yes
Forced                                   : No
Statistics Tags Issue                    : mkvmerge v8.3.0 (\'Over the Horizon\') 64bit 2017-05-12 00:09:49 / Lavf56.40.101 2017-05-13 14:43:58 / UTC 2017-05-13T14:43:58
FromStats_BitRate                        : 74200639
FromStats_Duration                       : 01:28:00.400000000
FromStats_FrameCount                     : 126603
FromStats_StreamSize                     : 48976131995

Audio
ID                                       : 2
Format                                   : AC-3
Format/Info                              : Audio Coding 3
Mode extension                           : CM (complete main)
Format settings, Endianness              : Big
Codec ID                                 : A_AC3
Duration                                 : 1 h 28 min
Bit rate mode                            : Constant
Bit rate                                 : 384 kb/s
Channel(s)                               : 6 channels
Channel positions                        : Front: L C R, Side: L R, LFE
Sampling rate                            : 48.0 kHz
Frame rate                               : 31.250 FPS (1536 spf)
Compression mode                         : Lossy
Stream size                              : 244 MiB (2%)
Title                                    : RARBG.COM - Win.It.All.2017.720p.WEBRip.x264-RARBG
Language                                 : English
Default                                  : Yes
Forced                                   : No
Statistics Tags Issue                    : mkvmerge v8.3.0 (\'Over the Horizon\') 64bit 2017-05-12 00:09:49 / Lavf56.40.101 2017-05-13 14:43:58 / UTC 2017-05-13T14:43:58
FromStats_BitRate                        : 384000
FromStats_Duration                       : 01:28:58.016000000
FromStats_FrameCount                     : 166813
FromStats_StreamSize                     : 256224768

Text
ID                                       : 3
Format                                   : UTF-8
Codec ID                                 : S_TEXT/UTF8
Codec ID/Info                            : UTF-8 Plain Text
Language                                 : English
Default                                  : Yes
Forced                                   : No
Statistics Tags Issue                    : mkvmerge v8.3.0 (\'Over the Horizon\') 64bit 2017-05-12 00:09:49 / Lavf56.40.101 2017-05-13 14:43:58 / UTC 2017-05-13T14:43:58
FromStats_BitRate                        : 102
FromStats_Duration                       : 01:27:59.149000000
FromStats_FrameCount                     : 1872
FromStats_StreamSize                     : 67456

Subtitulos

Grupo: RARBG
Versión: WEBRip x264 1080p AC3
Tamaño: 21.1 GB
Win.It.All.2017.1080p.WEBRip.x264-RARBG

Video
ID                                       : 1
Format                                   : AVC
Format/Info                              : Advanced Video Codec
Format profile                           : High@L4.1
Format settings, CABAC                   : Yes
Format settings, ReFrames                : 4 frames
Codec ID                                 : V_MPEG4/ISO/AVC
Duration                                 : 1 h 28 min
Bit rate                                 : 33.0 Mb/s
Width                                    : 1 920 pixels
Height                                   : 818 pixels
Display aspect ratio                     : 2.35:1
Frame rate mode                          : Constant
Frame rate                               : 23.976 (24000/1001) FPS
Color space                              : YUV
Chroma subsampling                       : 4:2:0
Bit depth                                : 8 bits
Scan type                                : Progressive
Bits/(Pixel*Frame)                       : 0.876
Stream size                              : 20.5 GiB (97%)
Title                                    : RARBG.COM - Win.It.All.2017.1080p.WEBRip.x264-RARBG
Writing library                          : x264 core 148 r2638M 7599210
Encoding settings                        : cabac=1 / ref=4 / deblock=1:-1:-1 / analyse=0x3:0x113 / me=umh / subme=9 / psy=1 / psy_rd=1.00:0.15 / mixed_ref=1 / me_range=16 / chroma_me=1 / trellis=2 / 8x8dct=1 / cqm=0 / deadzone=21,11 / fast_pskip=1 / chroma_qp_offset=-3 / threads=12 / lookahead_threads=1 / sliced_threads=0 / nr=0 / decimate=1 / interlaced=0 / bluray_compat=0 / constrained_intra=0 / bframes=3 / b_pyramid=2 / b_adapt=2 / b_bias=0 / direct=3 / weightb=1 / open_gop=0 / weightp=2 / keyint=250 / keyint_min=23 / scenecut=40 / intra_refresh=0 / rc_lookahead=50 / rc=crf / mbtree=1 / crf=17.0 / qcomp=0.60 / qpmin=0 / qpmax=69 / qpstep=4 / ip_ratio=1.40 / aq=1:1.00
Default                                  : Yes
Forced                                   : No
Statistics Tags Issue                    : mkvmerge v8.3.0 (\'Over the Horizon\') 64bit 2017-05-12 00:09:49 / Lavf56.40.101 2017-05-13 14:43:58 / UTC 2017-05-13T14:43:58
FromStats_BitRate                        : 74200639
FromStats_Duration                       : 01:28:00.400000000
FromStats_FrameCount                     : 126603
FromStats_StreamSize                     : 48976131995

Audio
ID                                       : 2
Format                                   : AC-3
Format/Info                              : Audio Coding 3
Mode extension                           : CM (complete main)
Format settings, Endianness              : Big
Codec ID                                 : A_AC3
Duration                                 : 1 h 28 min
Bit rate mode                            : Constant
Bit rate                                 : 384 kb/s
Channel(s)                               : 6 channels
Channel positions                        : Front: L C R, Side: L R, LFE
Sampling rate                            : 48.0 kHz
Frame rate                               : 31.250 FPS (1536 spf)
Compression mode                         : Lossy
Stream size                              : 244 MiB (1%)
Title                                    : RARBG.COM - Win.It.All.2017.1080p.WEBRip.x264-RARBG
Language                                 : English
Default                                  : Yes
Forced                                   : No
Statistics Tags Issue                    : mkvmerge v8.3.0 (\'Over the Horizon\') 64bit 2017-05-12 00:09:49 / Lavf56.40.101 2017-05-13 14:43:58 / UTC 2017-05-13T14:43:58
FromStats_BitRate                        : 384000
FromStats_Duration                       : 01:28:58.016000000
FromStats_FrameCount                     : 166813
FromStats_StreamSize                     : 256224768

Text
ID                                       : 3
Format                                   : UTF-8
Codec ID                                 : S_TEXT/UTF8
Codec ID/Info                            : UTF-8 Plain Text
Language                                 : English
Default                                  : Yes
Forced                                   : No
Statistics Tags Issue                    : mkvmerge v8.3.0 (\'Over the Horizon\') 64bit 2017-05-12 00:09:49 / Lavf56.40.101 2017-05-13 14:43:58 / UTC 2017-05-13T14:43:58
FromStats_BitRate                        : 102
FromStats_Duration                       : 01:27:59.149000000
FromStats_FrameCount                     : 1872
FromStats_StreamSize                     : 67456

Subtitulos

Grupo: TrollUHD
Versión: WEBRip x264 2160p AC3
Tamaño: 45.8 GB
Win.It.All.2017.2160p.NF.WEBRip.DD5.1.x264-TrollUHD

Video
ID                                       : 1
Format                                   : AVC
Format/Info                              : Advanced Video Codec
Format profile                           : High@L5.1
Format settings, CABAC                   : Yes
Format settings, ReFrames                : 5 frames
Codec ID                                 : V_MPEG4/ISO/AVC
Duration                                 : 1h 28mn
Bit rate                                 : 74.2 Mbps
Width                                    : 3 840 pixels
Height                                   : 1 634 pixels
Display aspect ratio                     : 2.35:1
Frame rate mode                          : Constant
Frame rate                               : 23.976 (24000/1001) fps
Color space                              : YUV
Chroma subsampling                       : 4:2:0
Bit depth                                : 8 bits
Scan type                                : Progressive
Bits/(Pixel*Frame)                       : 0.493
Stream size                              : 45.6 GiB (99%)
Writing library                          : x264 core 148 r2638 7599210
Encoding settings                        : cabac=1 / ref=5 / deblock=1:-2:-2 / analyse=0x3:0x133 / me=umh / subme=10 / psy=1 / psy_rd=0.80:0.15 / mixed_ref=1 / me_range=48 / chroma_me=1 / trellis=2 / 8x8dct=1 / cqm=0 / deadzone=6,6 / fast_pskip=1 / chroma_qp_offset=-3 / threads=24 / lookahead_threads=4 / sliced_threads=0 / nr=0 / decimate=0 / interlaced=0 / bluray_compat=0 / constrained_intra=0 / bframes=8 / b_pyramid=2 / b_adapt=2 / b_bias=0 / direct=3 / weightb=1 / open_gop=0 / weightp=2 / keyint=240 / keyint_min=23 / scenecut=40 / intra_refresh=0 / rc_lookahead=60 / rc=crf / mbtree=1 / crf=20.5 / qcomp=0.70 / qpmin=0 / qpmax=69 / qpstep=4 / ip_ratio=1.40 / aq=3:0.90
Default                                  : Yes
Forced                                   : No

Audio
ID                                       : 2
Format                                   : AC-3
Format/Info                              : Audio Coding 3
Mode extension                           : CM (complete main)
Format settings, Endianness              : Big
Codec ID                                 : A_AC3
Duration                                 : 1h 28mn
Bit rate mode                            : Constant
Bit rate                                 : 384 Kbps
Channel(s)                               : 6 channels
Channel positions                        : Front: L C R, Side: L R, LFE
Sampling rate                            : 48.0 KHz
Frame rate                               : 31.250 fps (1536 spf)
Compression mode                         : Lossy
Stream size                              : 244 MiB (1%)
Language                                 : English
Default                                  : Yes
Forced                                   : No

Text #1
ID                                       : 3
Format                                   : UTF-8
Codec ID                                 : S_TEXT/UTF8
Codec ID/Info                            : UTF-8 Plain Text
Duration                                 : 1h 27mn
Bit rate                                 : 102 bps
Count of elements                        : 1872
Stream size                              : 65.9 KiB (0%)
Language                                 : English
Default                                  : Yes
Forced                                   : No

Text #2
ID                                       : 4
Format                                   : UTF-8
Codec ID                                 : S_TEXT/UTF8
Codec ID/Info                            : UTF-8 Plain Text
Duration                                 : 1h 27mn
Bit rate                                 : 71 bps
Count of elements                        : 1591
Stream size                              : 45.8 KiB (0%)
Language                                 : Spanish
Default                                  : No
Forced                                   : No

Text #3
ID                                       : 5
Format                                   : UTF-8
Codec ID                                 : S_TEXT/UTF8
Codec ID/Info                            : UTF-8 Plain Text
Duration                                 : 1h 27mn
Bit rate                                 : 77 bps
Count of elements                        : 1588
Stream size                              : 50.0 KiB (0%)
Language                                 : French
Default                                  : No
Forced                                   : No

Text #4
ID                                       : 6
Format                                   : UTF-8
Codec ID                                 : S_TEXT/UTF8
Codec ID/Info                            : UTF-8 Plain Text
Duration                                 : 1h 27mn
Bit rate                                 : 69 bps
Count of elements                        : 1626
Stream size                              : 44.6 KiB (0%)
Title                                    : Traditional
Language                                 : Chinese
Default                                  : No
Forced                                   : No

Text #5
ID                                       : 7
Format                                   : UTF-8
Codec ID                                 : S_TEXT/UTF8
Codec ID/Info                            : UTF-8 Plain Text
Duration                                 : 1h 27mn
Bit rate                                 : 70 bps
Count of elements                        : 1626
Stream size                              : 45.3 KiB (0%)
Title                                    : Simplified
Language                                 : Chinese
Default                                  : No
Forced                                   : No
Trailer