61
PUNTOS
Calificar
CALIFICA
Calificar
Califica y/o escribe un comentario sobre la película.
Comentarios en el foroFORO

Beauty and the Beast: The Enchanted Christmas (1997)

Bella planea decorar el castillo y organizar una fiesta para todos sus amigos, aunque a Bestia no le haga demasiada ilusión... Pero antes de que empiecen los preparativos, Bella y todos sus amigos del castillo encantado descubren que Forte, el órgano, y su atontado secuaz Fifí, planean sabotear la fiestas de navidad. Gracias a la ilusión de Bella por enseñar a Bestia el verdadero significado de la Navidad, conseguirá parar los perversos planes de Forte.
Director Andrew Knight
Actores Paige O'Hara, Robby Benson, Jerry Orbach
Duración 72 min
País USA, Canada
Streaming (Servicio externo)
Grupo: RARBG
Versión: BDRip H.264 720p AAC
Tamaño: 900 MB
Beauty.and.the.Beast.The.Enchanted.Christmas.1997.720p.BluRay.H264.AAC-RARBG

Video
ID                                       : 1
Format                                   : AVC
Format/Info                              : Advanced Video Codec
Format profile                           : High@L4.1
Format settings, CABAC                   : Yes
Format settings, ReFrames                : 4 frames
Codec ID                                 : avc1
Codec ID/Info                            : Advanced Video Coding
Duration                                 : 1h 10mn
Bit rate                                 : 1 500 Kbps
Width                                    : 1 280 pixels
Height                                   : 720 pixels
Display aspect ratio                     : 16:9
Frame rate mode                          : Constant
Frame rate                               : 23.976 (23976/1000) fps
Color space                              : YUV
Chroma subsampling                       : 4:2:0
Bit depth                                : 8 bits
Scan type                                : Progressive
Bits/(Pixel*Frame)                       : 0.068
Stream size                              : 758 MiB (87%)
Writing library                          : x264 core 148 r2597M e86f3a1
Encoding settings                        : cabac=1 / ref=4 / deblock=1:-1:-1 / analyse=0x3:0x113 / me=umh / subme=9 / psy=1 / psy_rd=1.00:0.15 / mixed_ref=1 / me_range=24 / chroma_me=1 / trellis=2 / 8x8dct=1 / cqm=0 / deadzone=21,11 / fast_pskip=1 / chroma_qp_offset=-3 / threads=32 / lookahead_threads=4 / sliced_threads=0 / nr=0 / decimate=1 / interlaced=0 / bluray_compat=0 / constrained_intra=0 / bframes=3 / b_pyramid=2 / b_adapt=2 / b_bias=0 / direct=3 / weightb=1 / open_gop=0 / weightp=2 / keyint=250 / keyint_min=25 / scenecut=40 / intra_refresh=0 / rc_lookahead=50 / rc=2pass / mbtree=1 / bitrate=1500 / ratetol=1.0 / qcomp=0.60 / qpmin=0 / qpmax=69 / qpstep=4 / cplxblur=20.0 / qblur=0.5 / vbv_maxrate=31250 / vbv_bufsize=31250 / nal_hrd=none / filler=0 / ip_ratio=1.40 / aq=3:1.00
Encoded date                             : UTC 2017-04-12 11:07:11
Tagged date                              : UTC 2017-04-12 11:07:11

Audio
ID                                       : 2
Format                                   : AAC
Format/Info                              : Advanced Audio Codec
Format profile                           : LC
Codec ID                                 : 40
Duration                                 : 1h 10mn
Bit rate mode                            : Constant
Bit rate                                 : 224 Kbps
Channel(s)                               : 2 channels
Channel(s)_Original                      : 6 channels
Channel positions                        : Front: L C R, Side: L R, LFE
Sampling rate                            : 48.0 KHz
Frame rate                               : 46.875 fps (1024 spf)
Compression mode                         : Lossy
Stream size                              : 113 MiB (13%)
Language                                 : English
Default                                  : Yes
Alternate group                          : 1
Encoded date                             : UTC 2017-04-12 11:07:11
Tagged date                              : UTC 2017-04-12 11:07:11

Subtitulos

Grupo: PSYCHD
Versión: BDRip x264 720p DTS
Tamaño: 2.7 GB
Beauty.and.the.Beast.The.Enchanted.Christmas.1997.720p.BluRay.x264-PSYCHD

Date..............: 04/2017
IMDB..............: http://www.imdb.com/title/tt0118692/
Ratings...........: 6.1/10   6,801 votes
Runtime...........: 01:10:43
Video.............: 1280x720 / 23.976fps
Audio.............: DTS 5.1 1509kbps

Subtitulos

Grupo: PSYCHD
Versión: BDRip x264 1080p DTS
Tamaño: 4.4 GB
Beauty.and.the.Beast.The.Enchanted.Christmas.1997.1080p.BluRay.x264-PSYCHD

Date..............: 04/2017
IMDB..............: http://www.imdb.com/title/tt0118692/
Ratings...........: 6.1/10   6,801 votes
Runtime...........: 01:10:43
Video.............: 1920x1080 / 23.976fps
Audio.............: DTS 5.1 1509kbps

Subtitulos