30
PUNTOS
Calificar
CALIFICA
Calificar
Califica y/o escribe un comentario sobre la película.
Comentarios en el foroFORO

Amy Schumer: The Leather Special (2017)

Amy Schumer se despacha sobre las citas, el sexo y lo absurdo de la fama en este explícito monólogo grabado en el Bellco Theater de Denver.
Director Amy Schumer
Actores Amy Schumer, Kim Caramele
Duración 57 min
País USA
Streaming (Servicio externo)
Grupo: DEFLATE
Versión: WEBRip x264 AAC
Tamaño: 425 MB
Amy.Schumer.The.Leather.Special.2017.WEBRip.X264-DEFLATE

Release Date : 2017-03-23
URL          : http://www.imdb.com/title/tt6616074/
Duration     : 57mn 8s
Video        : X264 5d7902f @ CRF 19.0000
Resolution   : 720x380 / 1.895:1
Frame Rate   : 23.976 fps
Audio        : AAC LC 2ch / 48 KHz
Language     : English
Subtitles    : English, English (SDH), French, Italian, Spanish
Source       : Netflix
Size         : 417.767 MB (438,060,850 bytes)
Notes        :

Subtitulos

Grupo: RARBG
Versión: WEBRip x264 AAC
Tamaño: 500 MB
Amy.Schumer.The.Leather.Special.2017.WEBRip.x264-RARBG

Video
ID                                       : 1
Format                                   : AVC
Format/Info                              : Advanced Video Codec
Format profile                           : High@L3.1
Format settings, CABAC                   : Yes
Format settings, ReFrames                : 5 frames
Codec ID                                 : avc1
Codec ID/Info                            : Advanced Video Coding
Duration                                 : 57 min
Bit rate                                 : 1 100 kb/s
Width                                    : 720 pixels
Height                                   : 380 pixels
Display aspect ratio                     : 1.897
Frame rate mode                          : Constant
Frame rate                               : 23.976 (24000/1001) FPS
Color space                              : YUV
Chroma subsampling                       : 4:2:0
Bit depth                                : 8 bits
Scan type                                : Progressive
Bits/(Pixel*Frame)                       : 0.168
Stream size                              : 455 MiB (89%)
Title                                    : RARBG.COM - Amy.Schumer.The.Leather.Special.2017.WEBRip.x264-RARBG
Writing library                          : x264 core 148 r2597M e86f3a1
Encoding settings                        : cabac=1 / ref=5 / deblock=1:-1:-1 / analyse=0x3:0x113 / me=umh / subme=9 / psy=1 / psy_rd=1.00:0.15 / mixed_ref=1 / me_range=16 / chroma_me=1 / trellis=2 / 8x8dct=1 / cqm=0 / deadzone=21,11 / fast_pskip=1 / chroma_qp_offset=-3 / threads=12 / lookahead_threads=1 / sliced_threads=0 / nr=0 / decimate=1 / interlaced=0 / bluray_compat=0 / constrained_intra=0 / bframes=3 / b_pyramid=2 / b_adapt=2 / b_bias=0 / direct=3 / weightb=1 / open_gop=0 / weightp=2 / keyint=250 / keyint_min=23 / scenecut=40 / intra_refresh=0 / rc_lookahead=50 / rc=abr / mbtree=1 / bitrate=1100 / ratetol=1.0 / qcomp=0.60 / qpmin=0 / qpmax=69 / qpstep=4 / ip_ratio=1.40 / aq=1:1.00
Encoded date                             : UTC 2017-03-24 13:35:52
Tagged date                              : UTC 2017-03-24 13:35:52

Audio
ID                                       : 2
Format                                   : AAC
Format/Info                              : Advanced Audio Codec
Format profile                           : LC
Codec ID                                 : 40
Duration                                 : 57 min
Duration_LastFrame                       : -11 ms
Bit rate mode                            : Constant
Bit rate                                 : 128 kb/s
Channel(s)                               : 2 channels
Channel positions                        : Front: L R
Sampling rate                            : 48.0 kHz
Frame rate                               : 46.875 FPS (1024 spf)
Compression mode                         : Lossy
Stream size                              : 52.3 MiB (10%)
Title                                    : RARBG.COM - Amy.Schumer.The.Leather.Special.2017.WEBRip.x264-RARBG
Language                                 : English
Default                                  : Yes
Alternate group                          : 1
Encoded date                             : UTC 2017-03-24 13:35:52
Tagged date                              : UTC 2017-03-24 13:35:52
Grupo: RARBG
Versión: WEBRip x264 720p AC3
Tamaño: 1.4 GB
Amy.Schumer.The.Leather.Special.2017.720p.WEBRip.x264-RARBG

Video
ID                                       : 1
Format                                   : AVC
Format/Info                              : Advanced Video Codec
Format profile                           : High@L4.1
Format settings, CABAC                   : Yes
Format settings, ReFrames                : 4 frames
Codec ID                                 : V_MPEG4/ISO/AVC
Duration                                 : 57 min
Bit rate                                 : 2 981 kb/s
Width                                    : 1 280 pixels
Height                                   : 676 pixels
Display aspect ratio                     : 1.898
Original display aspect ratio            : 1.897
Frame rate mode                          : Constant
Frame rate                               : 23.976 (24000/1001) FPS
Color space                              : YUV
Chroma subsampling                       : 4:2:0
Bit depth                                : 8 bits
Scan type                                : Progressive
Bits/(Pixel*Frame)                       : 0.144
Stream size                              : 1.19 GiB (87%)
Title                                    : RARBG.COM - Amy.Schumer.The.Leather.Special.2017.720p.WEBRip.x264-RARBG
Writing library                          : x264 core 148 r2597M e86f3a1
Encoding settings                        : cabac=1 / ref=4 / deblock=1:-1:-1 / analyse=0x3:0x113 / me=umh / subme=9 / psy=1 / psy_rd=1.00:0.15 / mixed_ref=1 / me_range=16 / chroma_me=1 / trellis=2 / 8x8dct=1 / cqm=0 / deadzone=21,11 / fast_pskip=1 / chroma_qp_offset=-3 / threads=12 / lookahead_threads=1 / sliced_threads=0 / nr=0 / decimate=1 / interlaced=0 / bluray_compat=0 / constrained_intra=0 / bframes=3 / b_pyramid=2 / b_adapt=2 / b_bias=0 / direct=3 / weightb=1 / open_gop=0 / weightp=2 / keyint=250 / keyint_min=23 / scenecut=40 / intra_refresh=0 / rc_lookahead=50 / rc=crf / mbtree=1 / crf=17.0 / qcomp=0.60 / qpmin=0 / qpmax=69 / qpstep=4 / ip_ratio=1.40 / aq=1:1.00
Default                                  : Yes
Forced                                   : No
Statistics Tags Issue                    : mkvmerge v8.3.0 (\'Over the Horizon\') 64bit 2017-03-12 23:40:36 / Lavf56.40.101 2017-03-24 13:35:52 / UTC 2017-03-24T13:35:52
FromStats_BitRate                        : 48624179
FromStats_Duration                       : 00:57:07.716000000
FromStats_FrameCount                     : 82183
FromStats_StreamSize                     : 20833734878

Audio
ID                                       : 2
Format                                   : AC-3
Format/Info                              : Audio Coding 3
Mode extension                           : CM (complete main)
Format settings, Endianness              : Big
Codec ID                                 : A_AC3
Duration                                 : 57 min
Bit rate mode                            : Constant
Bit rate                                 : 384 kb/s
Channel(s)                               : 6 channels
Channel positions                        : Front: L C R, Side: L R, LFE
Sampling rate                            : 48.0 kHz
Frame rate                               : 31.250 FPS (1536 spf)
Compression mode                         : Lossy
Stream size                              : 157 MiB (11%)
Title                                    : RARBG.COM - Amy.Schumer.The.Leather.Special.2017.720p.WEBRip.x264-RARBG
Language                                 : English
Default                                  : Yes
Forced                                   : No
Statistics Tags Issue                    : mkvmerge v8.3.0 (\'Over the Horizon\') 64bit 2017-03-12 23:40:36 / Lavf56.40.101 2017-03-24 13:35:52 / UTC 2017-03-24T13:35:52
FromStats_BitRate                        : 384000
FromStats_Duration                       : 00:57:08.384000000
FromStats_FrameCount                     : 107137
FromStats_StreamSize                     : 164562432

Text
ID                                       : 3
Format                                   : UTF-8
Codec ID                                 : S_TEXT/UTF8
Codec ID/Info                            : UTF-8 Plain Text
Language                                 : English
Default                                  : Yes
Forced                                   : No
Statistics Tags Issue                    : mkvmerge v8.3.0 (\'Over the Horizon\') 64bit 2017-03-12 23:40:36 / Lavf56.40.101 2017-03-24 13:35:52 / UTC 2017-03-24T13:35:52
FromStats_BitRate                        : 80
FromStats_Duration                       : 00:56:55.746000000
FromStats_FrameCount                     : 893
FromStats_StreamSize                     : 34050
Grupo: RARBG
Versión: WEBRip x264 1080p AC3
Tamaño: 3.6 GB
Amy.Schumer.The.Leather.Special.2017.1080p.WEBRip.x264-RARBG

Video
ID                                       : 1
Format                                   : AVC
Format/Info                              : Advanced Video Codec
Format profile                           : High@L4.1
Format settings, CABAC                   : Yes
Format settings, ReFrames                : 4 frames
Codec ID                                 : V_MPEG4/ISO/AVC
Duration                                 : 57 min
Bit rate                                 : 8 433 kb/s
Width                                    : 1 920 pixels
Height                                   : 1 012 pixels
Display aspect ratio                     : 1.897
Frame rate mode                          : Constant
Frame rate                               : 23.976 (24000/1001) FPS
Color space                              : YUV
Chroma subsampling                       : 4:2:0
Bit depth                                : 8 bits
Scan type                                : Progressive
Bits/(Pixel*Frame)                       : 0.181
Stream size                              : 3.37 GiB (94%)
Title                                    : RARBG.COM - Amy.Schumer.The.Leather.Special.2017.1080p.WEBRip.x264-RARBG
Writing library                          : x264 core 148 r2597M e86f3a1
Encoding settings                        : cabac=1 / ref=4 / deblock=1:-1:-1 / analyse=0x3:0x113 / me=umh / subme=9 / psy=1 / psy_rd=1.00:0.15 / mixed_ref=1 / me_range=16 / chroma_me=1 / trellis=2 / 8x8dct=1 / cqm=0 / deadzone=21,11 / fast_pskip=1 / chroma_qp_offset=-3 / threads=12 / lookahead_threads=1 / sliced_threads=0 / nr=0 / decimate=1 / interlaced=0 / bluray_compat=0 / constrained_intra=0 / bframes=3 / b_pyramid=2 / b_adapt=2 / b_bias=0 / direct=3 / weightb=1 / open_gop=0 / weightp=2 / keyint=250 / keyint_min=23 / scenecut=40 / intra_refresh=0 / rc_lookahead=50 / rc=crf / mbtree=1 / crf=17.0 / qcomp=0.60 / qpmin=0 / qpmax=69 / qpstep=4 / ip_ratio=1.40 / aq=1:1.00
Default                                  : Yes
Forced                                   : No
Statistics Tags Issue                    : mkvmerge v8.3.0 (\'Over the Horizon\') 64bit 2017-03-12 23:40:36 / Lavf56.40.101 2017-03-24 13:35:52 / UTC 2017-03-24T13:35:52
FromStats_BitRate                        : 48624179
FromStats_Duration                       : 00:57:07.716000000
FromStats_FrameCount                     : 82183
FromStats_StreamSize                     : 20833734878

Audio
ID                                       : 2
Format                                   : AC-3
Format/Info                              : Audio Coding 3
Mode extension                           : CM (complete main)
Format settings, Endianness              : Big
Codec ID                                 : A_AC3
Duration                                 : 57 min
Bit rate mode                            : Constant
Bit rate                                 : 384 kb/s
Channel(s)                               : 6 channels
Channel positions                        : Front: L C R, Side: L R, LFE
Sampling rate                            : 48.0 kHz
Frame rate                               : 31.250 FPS (1536 spf)
Compression mode                         : Lossy
Stream size                              : 157 MiB (4%)
Title                                    : RARBG.COM - Amy.Schumer.The.Leather.Special.2017.1080p.WEBRip.x264-RARBG
Language                                 : English
Default                                  : Yes
Forced                                   : No
Statistics Tags Issue                    : mkvmerge v8.3.0 (\'Over the Horizon\') 64bit 2017-03-12 23:40:36 / Lavf56.40.101 2017-03-24 13:35:52 / UTC 2017-03-24T13:35:52
FromStats_BitRate                        : 384000
FromStats_Duration                       : 00:57:08.384000000
FromStats_FrameCount                     : 107137
FromStats_StreamSize                     : 164562432

Text
ID                                       : 3
Format                                   : UTF-8
Codec ID                                 : S_TEXT/UTF8
Codec ID/Info                            : UTF-8 Plain Text
Language                                 : English
Default                                  : Yes
Forced                                   : No
Statistics Tags Issue                    : mkvmerge v8.3.0 (\'Over the Horizon\') 64bit 2017-03-12 23:40:36 / Lavf56.40.101 2017-03-24 13:35:52 / UTC 2017-03-24T13:35:52
FromStats_BitRate                        : 80
FromStats_Duration                       : 00:56:55.746000000
FromStats_FrameCount                     : 893
FromStats_StreamSize                     : 34050
Grupo: TrollUHD
Versión: WEBRip x264 2160p AC3
Tamaño: 19.6 GB
Amy.Schumer.The.Leather.Special.2017.2160p.WEBRip.DD5.1.x264-TrollUHD

Video
ID                                       : 1
Format                                   : AVC
Format/Info                              : Advanced Video Codec
Format profile                           : High@L5.1
Format settings, CABAC                   : Yes
Format settings, ReFrames                : 5 frames
Codec ID                                 : V_MPEG4/ISO/AVC
Duration                                 : 57mn 7s
Bit rate                                 : 48.6 Mbps
Width                                    : 3 840 pixels
Height                                   : 2 024 pixels
Display aspect ratio                     : 1.897
Frame rate mode                          : Constant
Frame rate                               : 23.976 (24000/1001) fps
Color space                              : YUV
Chroma subsampling                       : 4:2:0
Bit depth                                : 8 bits
Scan type                                : Progressive
Bits/(Pixel*Frame)                       : 0.261
Stream size                              : 19.4 GiB (99%)
Writing library                          : x264 core 148 r2638 7599210
Encoding settings                        : cabac=1 / ref=5 / deblock=1:-3:-3 / analyse=0x3:0x133 / me=umh / subme=10 / psy=1 / psy_rd=1.00:0.00 / mixed_ref=1 / me_range=48 / chroma_me=1 / trellis=2 / 8x8dct=1 / cqm=0 / deadzone=21,11 / fast_pskip=1 / chroma_qp_offset=-2 / threads=12 / lookahead_threads=2 / sliced_threads=0 / nr=0 / decimate=0 / interlaced=0 / bluray_compat=0 / constrained_intra=0 / bframes=8 / b_pyramid=2 / b_adapt=2 / b_bias=0 / direct=3 / weightb=1 / open_gop=0 / weightp=2 / keyint=240 / keyint_min=23 / scenecut=40 / intra_refresh=0 / rc=crf / mbtree=0 / crf=17.0 / qcomp=0.70 / qpmin=0 / qpmax=69 / qpstep=4 / ip_ratio=1.40 / pb_ratio=1.30 / aq=3:0.70
Default                                  : Yes
Forced                                   : No

Audio
ID                                       : 6
Format                                   : AC-3
Format/Info                              : Audio Coding 3
Mode extension                           : CM (complete main)
Format settings, Endianness              : Big
Codec ID                                 : A_AC3
Duration                                 : 57mn 8s
Bit rate mode                            : Constant
Bit rate                                 : 384 Kbps
Channel(s)                               : 6 channels
Channel positions                        : Front: L C R, Side: L R, LFE
Sampling rate                            : 48.0 KHz
Frame rate                               : 31.250 fps (1536 spf)
Compression mode                         : Lossy
Stream size                              : 157 MiB (1%)
Language                                 : English
Default                                  : Yes
Forced                                   : No

Text #1
ID                                       : 2
Format                                   : UTF-8
Codec ID                                 : S_TEXT/UTF8
Codec ID/Info                            : UTF-8 Plain Text
Duration                                 : 56mn 42s
Bit rate                                 : 80 bps
Count of elements                        : 893
Stream size                              : 33.3 KiB (0%)
Language                                 : English
Default                                  : Yes
Forced                                   : No

Text #2
ID                                       : 3
Format                                   : UTF-8
Codec ID                                 : S_TEXT/UTF8
Codec ID/Info                            : UTF-8 Plain Text
Duration                                 : 57mn 2s
Bit rate                                 : 68 bps
Count of elements                        : 813
Stream size                              : 28.7 KiB (0%)
Language                                 : Spanish
Default                                  : No
Forced                                   : No

Text #3
ID                                       : 4
Format                                   : UTF-8
Codec ID                                 : S_TEXT/UTF8
Codec ID/Info                            : UTF-8 Plain Text
Duration                                 : 56mn 53s
Bit rate                                 : 74 bps
Count of elements                        : 801
Stream size                              : 31.2 KiB (0%)
Language                                 : French
Default                                  : No
Forced                                   : No

Text #4
ID                                       : 5
Format                                   : UTF-8
Codec ID                                 : S_TEXT/UTF8
Codec ID/Info                            : UTF-8 Plain Text
Duration                                 : 56mn 56s
Bit rate                                 : 79 bps
Count of elements                        : 805
Stream size                              : 33.3 KiB (0%)
Language                                 : German
Default                                  : No
Forced                                   : No
Trailer