51
PUNTOS
Calificar
CALIFICA
Calificar
Califica y/o escribe un comentario sobre la película.
Comentarios en el foroFORO

Lavender (2016)

Jane es una fotógrafa que sufre pérdidas de memoria como secuela de un terrible accidente de coche. Junto a su marido y su hija viaja al hogar de su infancia para intentar reconectar con su pasado y con su tío. Pero allí siente que su pasado le persigue a medida que descubre pistas que parecen revelar una terrible verdad sobre ella misma.
Director Ed Gass-Donnelly
Actores Abbie Cornish, Dermot Mulroney, Justin Long
Duración 92 min
País Canada, USA
Streaming (Servicio externo)
Grupo: TOMMY
Versión: WebRip x264 1080p
Tamaño: 6.0 GB
Video
ID : 1
Format : AVC
Format/Info : Advanced Video Codec
Format profile : [email protected]
Format settings : CABAC / 4 Ref Frames
Format settings, CABAC : Yes
Format settings, Reference frames : 4 frames
Format settings, GOP : M=4, N=48
Codec ID : V_MPEG4/ISO/AVC
Duration : 1 h 32 min
Bit rate mode : Constant
Bit rate : 9 065 kb/s
Nominal bit rate : 10 000 kb/s
Width : 1 920 pixels
Height : 800 pixels
Display aspect ratio : 2.40:1
Frame rate mode : Constant
Frame rate : 23.976 (24000/1001) FPS
Color space : YUV
Chroma subsampling : 4:2:0
Bit depth : 8 bits
Scan type : Progressive
Bits/(Pixel*Frame) : 0.246
Stream size : 5.87 GiB (97%)
Default : Yes
Forced : No
Color range : Limited
Color primaries : BT.709
Transfer characteristics : BT.709
Matrix coefficients : BT.709

Audio
ID : 2
Format : E-AC-3
Format/Info : Enhanced AC-3
Commercial name : Dolby Digital Plus
Codec ID : A_EAC3
Duration : 1 h 32 min
Bit rate mode : Constant
Bit rate : 256 kb/s
Channel(s) : 6 channels
Channel layout : L R C LFE Ls Rs
Sampling rate : 48.0 kHz
Frame rate : 31.250 FPS (1536 SPF)
Compression mode : Lossy
Stream size : 170 MiB (3%)
Title : English
Language : English
Service kind : Complete Main
Default : Yes
Forced : No

Text
ID : 3
Format : UTF-8
Codec ID : S_TEXT/UTF8
Codec ID/Info : UTF-8 Plain Text
Duration : 1 h 26 min
Bit rate : 29 b/s
Count of elements : 947
Stream size : 18.6 KiB (0%)
Title : English [SDH]
Language : English
Default : No
Forced : No

Subtitulos

Grupo: YIFY
Versión: WebRip x264 720p
Tamaño: 789 MB

Subtitulos

Grupo: MkvCage
Versión: WEB-DL x264 720p
Tamaño: 719 MB

Subtitulos

Grupo: PSYCHD
Versión: DVDRip x264 AAC
Tamaño: 350 MB
Lavender.2016.DVDRip.x264-PSYCHD

Date..............: 04/2017
IMDB..............: http://www.imdb.com/title/tt4680980/
Ratings...........: 5.1/10   893 votes
Runtime...........: 01:32:43
Video.............: 720x300 / 23.976fps / CRF 19
Trailer