70
PUNTOS
Calificar
CALIFICA
Calificar
Califica y/o escribe un comentario sobre la película.
Comentarios en el foroFORO

Réparer les vivants (2016)

Todo comienza de madrugada en un mar tempestuoso con tres jóvenes surfistas. Unas horas más tarde, en el camino de vuelta sufren un accidente. En el hospital Havre, la vida de Simón pende de un hilo. Mientras tanto, en París, una mujer espera un trasplante providencial que le pueda prolongar su vida.
Director Katell Quillévéré
Actores Tahar Rahim, Emmanuelle Seigner, Anne Dorval
Duración 103 min
País France, Belgium
Streaming (Servicio externo)
Grupo: PRiDEHD
Versión: BDRip x264 AAC
Tamaño: 500 MB
Reparer.les.Vivants.2016.FRENCH.BDRip.x264-PRiDEHD

............Date : 03/03/2017 
..........Source : BluRay
...........Duree : 1h43 min                             
...............CD: 485mb
.............pack: 34x15
..........Encode : x264 crf 19 BT709
...........Video : 720x302
.........Bitrate : 536 kb/s
.............FPS : 24 fps
...........Audio : AAC French                            
............Subs : 
........... note : --

Subtitulos

Grupo: LOST
Versión: BDRip x264 720p DTS
Tamaño: 4.4 GB
Reparer.les.Vivants.2016.FRENCH.720p.BluRay.x264-LOST

General
Complete name                  : Reparer.les.Vivants.2016.FRENCH.720p.BluRay.x264-LOST.mkv
Format                         : Matroska
Format version                 : Version 2
File size                      : 4.37 GiB
Duration                       : 1h 43mn
Overall bit rate               : 6 047 Kbps
Writing application            : mkvmerge v6.6.0 ('The Edge Of The In Between') built on Dec 1 2013 17:55:00
Writing library                : libebml v1.3.0 + libmatroska v1.4.1

Video
ID                             : 1
Format                         : AVC
Format/Info                    : Advanced Video Codec
Format profile                 : [email protected]
Format settings, CABAC         : Yes
Format settings, ReFrames      : 5 frames
Codec ID                       : V_MPEG4/ISO/AVC
Duration                       : 1h 43mn
Bit rate                       : 4 540 Kbps
Width                          : 1 280 pixels
Height                         : 536 pixels
Display aspect ratio           : 2.40:1
Frame rate mode                : Constant
Frame rate                     : 24.000 fps
Color space                    : YUV
Chroma subsampling             : 4:2:0
Bit depth                      : 8 bits
Scan type                      : Progressive
Bits/(Pixel*Frame)             : 0.276
Stream size                    : 3.19 GiB (73%)
Writing library                : x264 core 148 r2744 b97ae06
Encoding settings              : cabac=1 / ref=5 / deblock=1:0:0 / analyse=0x3:0x113 / me=umh / subme=8 / psy=1 / psy_rd=1.00:0.00 / mixed_ref=1 / me_range=16 / chroma_me=1 / trellis=1 / 8x8dct=1 / cqm=0 / deadzone=21,11 / fast_pskip=1 / chroma_qp_offset=-2 / threads=12 / lookahead_threads=2 / sliced_threads=0 / nr=0 / decimate=1 / interlaced=0 / bluray_compat=0 / constrained_intra=0 / bframes=3 / b_pyramid=2 / b_adapt=2 / b_bias=0 / direct=3 / weightb=1 / open_gop=0 / weightp=2 / keyint=240 / keyint_min=24 / scenecut=40 / intra_refresh=0 / rc_lookahead=50 / rc=2pass / mbtree=1 / bitrate=4540 / ratetol=1.0 / qcomp=0.60 / qpmin=0 / qpmax=69 / qpstep=4 / cplxblur=20.0 / qblur=0.5 / ip_ratio=1.40 / aq=1:1.00
Language                       : English
Default                        : Yes
Forced                         : No

Audio
ID                             : 2
Format                         : DTS
Format/Info                    : Digital Theater Systems
Mode                           : 16
Format settings, Endianness    : Big
Codec ID                       : A_DTS
Duration                       : 1h 43mn
Bit rate mode                  : Constant
Bit rate                       : 1 509 Kbps
Channel(s)                     : 6 channels
Channel positions              : Front: L C R, Side: L R, LFE
Sampling rate                  : 48.0 KHz
Bit depth                      : 24 bits
Compression mode               : Lossy
Stream size                    : 1.09 GiB (25%)
Title                          : French DTS 1509kbps
Language                       : French
Default                        : Yes
Forced                         : No

Menu
00:00:00.000                   : en:00:00:00.000
00:04:42.917                   : en:00:04:42.917
00:11:48.500                   : en:00:11:48.500
00:22:18.083                   : en:00:22:18.083
00:30:00.833                   : en:00:30:00.833
00:38:45.500                   : en:00:38:45.500
00:48:28.458                   : en:00:48:28.458
00:54:36.208                   : en:00:54:36.208
01:09:56.333                   : en:01:09:56.333
01:19:05.583                   : en:01:19:05.583
01:26:25.250                   : en:01:26:25.250
01:37:47.417                   : en:01:37:47.417

Subtitulos

Grupo: LOST
Versión: BDRip x264 1080p DTS
Tamaño: 7.6 GB
Reparer.les.Vivants.2016.FRENCH.1080p.BluRay.x264-LOST

Release Date ..............: 03-03-2017
Video Codec ...............: x264
Video Resolution ..........: 1920 x 808
Video Bitrate .............: 9 085 Kbps
Runtime ...................: 01:43:21
Audio .....................: French DTS 1509 Kbps
Subs ......................: ---

Subtitulos

Trailer