62
PUNTOS
Calificar
CALIFICA
Calificar
Califica y/o escribe un comentario sobre la película.
Comentarios en el foroFORO

Assassin's Creed (2016)

Gracias a una tecnología revolucionaria que permite el acceso a los recuerdos genéticos, Callum Lynch (Michael Fassbender) revive las aventuras de Aguilar, un antepasado suyo que vivió en la España del siglo XV. Así descubre que es descendiente de una misteriosa organización secreta, los Assassins, y que posee las habilidades y los conocimientos necesarios para enfrentarse a la poderosa y temible organización de los Templarios en la época actual. Adaptación libre del videojuego homónimo.
Director Justin Kurzel
Actores Michael Fassbender, Marion Cotillard, Jeremy Irons
Duración 115 min
País UK, France, Hong Kong, USA, Taiwan, Malta, Canada
Streaming (Servicio externo)
Grupo: FGT
Versión: WEB-DL x264 AAC
Tamaño: 1 GB
Assassins.Creed.2016.WEB-DL.x264-FGT

Video
ID                                       : 1
Format                                   : AVC
Format/Info                              : Advanced Video Codec
Format profile                           : High@L3.1
Format settings, CABAC                   : Yes
Format settings, ReFrames                : 5 frames
Codec ID                                 : avc1
Codec ID/Info                            : Advanced Video Coding
Duration                                 : 1h 56mn
Bit rate                                 : 1 100 Kbps
Width                                    : 720 pixels
Height                                   : 304 pixels
Display aspect ratio                     : 2.40:1
Original display aspect ratio            : 2.40:1
Frame rate mode                          : Constant
Frame rate                               : 24.000 fps
Color space                              : YUV
Chroma subsampling                       : 4:2:0
Bit depth                                : 8 bits
Scan type                                : Progressive
Bits/(Pixel*Frame)                       : 0.209
Stream size                              : 913 MiB (89%)
Title                                    : Assassins.Creed.2016.WEB-DL.x264-FGT
Writing library                          : x264 core 148 r2597M e86f3a1
Encoding settings                        : cabac=1 / ref=5 / deblock=1:-2:-2 / analyse=0x3:0x113 / me=umh / subme=8 / psy=1 / psy_rd=0.90:0.00 / mixed_ref=1 / me_range=16 / chroma_me=1 / trellis=1 / 8x8dct=1 / cqm=0 / deadzone=21,11 / fast_pskip=1 / chroma_qp_offset=-2 / threads=40 / lookahead_threads=4 / sliced_threads=0 / nr=0 / decimate=1 / interlaced=0 / bluray_compat=0 / constrained_intra=0 / bframes=3 / b_pyramid=2 / b_adapt=2 / b_bias=0 / direct=3 / weightb=1 / open_gop=0 / weightp=2 / keyint=250 / keyint_min=25 / scenecut=40 / intra_refresh=0 / rc_lookahead=50 / rc=abr / mbtree=1 / bitrate=1100 / ratetol=1.0 / qcomp=0.60 / qpmin=0 / qpmax=69 / qpstep=4 / vbv_maxrate=31250 / vbv_bufsize=31250 / nal_hrd=none / filler=0 / ip_ratio=1.40 / aq=1:1.00
Language                                 : English

Audio
ID                                       : 2
Format                                   : AAC
Format/Info                              : Advanced Audio Codec
Format profile                           : LC
Codec ID                                 : 40
Duration                                 : 1h 55mn
Duration_LastFrame                       : 32ms
Bit rate mode                            : Variable
Bit rate                                 : 128 Kbps
Maximum bit rate                         : 31.3 Mbps
Channel(s)                               : 2 channels
Channel positions                        : Front: L R
Sampling rate                            : 48.0 KHz
Frame rate                               : 46.875 fps (1024 spf)
Compression mode                         : Lossy
Stream size                              : 106 MiB (10%)
Title                                    : Assassins.Creed.2016.WEB-DL.x264-FGT
Language                                 : English
Default                                  : Yes
Alternate group                          : 1

Subtitulos

Grupo: SPARKS
Versión: BDRip x264 AAC
Tamaño: 575 MB
Assassins.Creed.2016.BDRip.x264-SPARKS

Release.Date: 13.03.2017
Video.......: X264 @ crf 19
Frame.Rate..: 23.976
Resolution..: 720x302
Audio.......: AAC LC 2ch 48.0 KHz
Language....: English
Length......: 1h 55mn
Source......: Retail BluRay
Size........: 569MB
Subtitles...: English forced, English SDH,  English

Subtitulos

Grupo: SPARKS
Versión: BDRip x264 720p DTS
Tamaño: 5.5 GB
Assassins.Creed.2016.720p.BluRay.x264-SPARKS

Release.Date: 13.03.2017
Video.......: X264 5262Kbps
Frame.Rate..: 23.976
Resolution..: 1280x536
Audio.......: DTS 1509Kbps 6ch
Language....: English
Length......: 1h 55mn
Source......: Retail BluRay
Size........: 5596MB
Subtitles...: English forced, English SDH,  English

Subtitulos

Grupo: SPARKS
Versión: BDRip x264 1080p DTS
Tamaño: 8.7 GB
Assassins.Creed.2016.1080p.BluRay.x264-SPARKS

Release.Date: 13.03.2017
Video.......: X264 9329Kbps
Frame.Rate..: 23.976
Resolution..: 1920x808
Audio.......: DTS 1509Kbps 6ch
Language....: English
Length......: 1h 55mn
Source......: Retail BluRay
Size........: 8955MB
Subtitles...: English forced, English SDH,  English

Subtitulos

Trailer