83
PUNTOS
Calificar
CALIFICA
Calificar
Califica y/o escribe un comentario sobre la película.
Comentarios en el foroFORO

Der Untergang (2004)

Berlín, abril de 1945. Una nación está a punto de sufrir su hundimiento. Una encarnizada ba-talla se libra en las calles de la capital. Hitler (Bruno Ganz) y su círculo de confianza se han atrincherado en el búnker del Führer. Entre ellos se encuentra Traudl Junge (Alexandra Maria Lara), secretaria personal de Hitler. En el exterior, la situación se recrudece. A pe-sar de que Berlín ya no puede resistir más, el Führer se niega a abandonar la ciudad. Mientras el sangriento peso de la guerra cae sobre sus últimos defensores, Hitler prepara su despedida final. Ho-ras antes de suicidarse juntos, él y Eva Braun (Juliane Köhler) con-traen matrimonio. Sus cadáveres deben ser incinerados para que no caigan en manos del enemigo. Muchos otros optan por el suici-dio. Cuando la situación se hace insostenible, Magda Goebbels (Corinna Harfouch) envenena a sus seis hijos y seguidamente su esposo y ella se quitan la vida. Poco después, Traudl Junge y otros supervivientes consiguen escapar en el último momento...
Director Oliver Hirschbiegel
Actores Bruno Ganz, Alexandra Maria Lara, Ulrich Matthes
Duración 156 min
País Germany | Italy | Austria
Streaming (Servicio externo)
Grupo: QiX
Versión: DVDRip XviD
Tamaño: 1.4 GB
General
Complete name                    : Der.Untergang.CD1.DVDRip.XviD-QiX.avi
Format                           : AVI
Format/Info                      : Audio Video Interleave
File size                        : 700 MiB
Duration                         : 1h 14mn
Overall bit rate                 : 1 308 Kbps
Writing application              : Nandub v1.0rc2
Writing library                  : Nandub build 1853/release

Video
Format                           : MPEG-4 Visual
Format profile                   : Streaming [email protected]
Format settings, BVOP            : Yes
Format settings, QPel            : Yes
Format settings, GMC             : No warppoints
Format settings, Matrix          : Default
Muxing mode                      : Packed bitstream
Codec ID                         : XVID
Codec ID/Hint                    : XviD
Duration                         : 1h 14mn
Bit rate                         : 1 156 Kbps
Width                            : 560 pixels
Height                           : 304 pixels
Display aspect ratio             : 16/9
Frame rate                       : 25.000 fps
Resolution                       : 24 bits
Colorimetry                      : 4:2:0
Scan type                        : Progressive
Bits/(Pixel*Frame)               : 0.272
Stream size                      : 618 MiB (88%)
Writing library                  : XviD 1.0.2 (UTC 2004-08-29)

Audio
Format                           : MPEG Audio
Format version                   : Version 1
Format profile                   : Layer 3
Codec ID                         : 55
Codec ID/Hint                    : MP3
Duration                         : 1h 14mn
Bit rate mode                    : Variable
Bit rate                         : 139 Kbps
Nominal bit rate                 : 150 Kbps
Channel(s)                       : 2 channels
Sampling rate                    : 48.0 KHz
Resolution                       : 16 bits
Stream size                      : 74.6 MiB (11%)
Alignment                        : Aligned on interleaves
Interleave, duration             : 24 ms (0.60 video frame)
Interleave, preload duration     : 336 ms
Writing library                  : LAME3.92
Encoding settings                : ABR
General
Complete name                    : Der.Untergang.CD2.DVDRip.XviD-QiX.avi
Format                           : AVI
Format/Info                      : Audio Video Interleave
File size                        : 699 MiB
Duration                         : 1h 14mn
Overall bit rate                 : 1 318 Kbps
Writing application              : Nandub v1.0rc2
Writing library                  : Nandub build 1853/release

Video
Format                           : MPEG-4 Visual
Format profile                   : Streaming [email protected]
Format settings, BVOP            : Yes
Format settings, QPel            : Yes
Format settings, GMC             : No warppoints
Format settings, Matrix          : Default
Muxing mode                      : Packed bitstream
Codec ID                         : XVID
Codec ID/Hint                    : XviD
Duration                         : 1h 14mn
Bit rate                         : 1 156 Kbps
Width                            : 560 pixels
Height                           : 304 pixels
Display aspect ratio             : 16/9
Frame rate                       : 25.000 fps
Resolution                       : 24 bits
Colorimetry                      : 4:2:0
Scan type                        : Progressive
Bits/(Pixel*Frame)               : 0.272
Stream size                      : 613 MiB (88%)
Writing library                  : XviD 1.0.2 (UTC 2004-08-29)

Audio
Format                           : MPEG Audio
Format version                   : Version 1
Format profile                   : Layer 3
Codec ID                         : 55
Codec ID/Hint                    : MP3
Duration                         : 1h 14mn
Bit rate mode                    : Variable
Bit rate                         : 150 Kbps
Channel(s)                       : 2 channels
Sampling rate                    : 48.0 KHz
Resolution                       : 16 bits
Stream size                      : 79.3 MiB (11%)
Alignment                        : Aligned on interleaves
Interleave, duration             : 24 ms (0.60 video frame)
Interleave, preload duration     : 472 ms

Subtitulos

Grupo: MSE
Versión: DVDRip XviD AC3
Tamaño: 1.4 GB
Ripper: MSE
Genre: Drama
Video Codec: XViD
Runtime: 149 Min
Video: ~862kbps
Audio Format: ~448kbps AC3
Aspect Ratio: WS
Frame Size: 576x320
Framerate: N/A
Language: German
Subtitles: English 

Subtitulos

Grupo: iLL
Versión: HDDVDRip x264 720p AC3
Tamaño: 8.7 GB
Video : x264 7592kbps 1280 x 720 (1.78:1) (OAR) 23.976fps

Audio : German,448kbps AC3 5.1

Subtitulos

Grupo: CHD
Versión: BDRip x264 720p DTS
Tamaño: 7.9 GB
Der.Untergang.2004.Bluray.720p.DTSHD.x264-CHD
RECODE RiPPER...: [email protected]
RELEASE DATE....: 04/09/2009
THEATRE DATE....: 09/16/2004
GENRE...........: Biography / Drama / History
SOURCE TYPE.....: 1080p Blu-ray H264
ViDEO BiTRATE...: x264 r1072 [email protected] kbps
RESOLUTiON......: 1280 x 720
ASPECT RATiO....: 1.78 : 1
FRAME RATE......: 23.976 fps
RUNTiME.........: 155 mins
AUDiO BiTRATE...: [email protected]
LANGUAGE........: German / Russian
SUBTiTLES.......: None
FilE SiZE.......: 8,314,639 KB
iMDB URL........: http://www.imdb.com/title/tt0363163/
iMDB RATiNG.....: 8.4/10 (64,188 votes)

Subtitulos