58
PUNTOS
Calificar
CALIFICA
Calificar
Califica y/o escribe un comentario sobre la película.
Comentarios en el foroFORO

Girlfriend's Day (2017)

En una ciudad donde los escritores de tarjetas de felicitación son considerados como estrellas de cine, el escritor Ray solía ser el rey. Pero intentando volver a tener la inspiración que una vez le hizo ser el más grande, Ray se enreda en una red de asesinatos y engaños cuando los escritores comienzan a competir por crear la tarjeta perfecta para una nueva festividad: el día de la novia.
Director Michael Paul Stephenson
Actores Bob Odenkirk, Amber Tamblyn, Stacy Keach
Duración 65 min
País USA
Streaming (Servicio externo)
Grupo: EVO
Versión: HDRip XviD AC3
Tamaño: 1.4 GB
Girlfriends.Day.2017.HDRip.XviD.AC3-EVO

SOURCE: TheRival (720p) - Thanks!
ViDEO: 2400 kbps
RESOLUTiON: 720x304
RUNTiME: 1h10m33sec
SUBTiTLES: No.
AUDiO: 192 Kbps AC3 2.0
LANGUAGE: ENGLiSH
GREETS: KING_DVD
NOTES: Enjoy.

Subtitulos

Grupo: FGT
Versión: WEBRip x264 AAC
Tamaño: 600 MB
Girlfriends.Day.2017.WEBRip.x264-FGT

Video
ID                                       : 1
Format                                   : AVC
Format/Info                              : Advanced Video Codec
Format profile                           : High@L3.1
Format settings, CABAC                   : Yes
Format settings, ReFrames                : 5 frames
Codec ID                                 : avc1
Codec ID/Info                            : Advanced Video Coding
Duration                                 : 1h 10mn
Bit rate                                 : 1 100 Kbps
Width                                    : 720 pixels
Height                                   : 304 pixels
Display aspect ratio                     : 2.40:1
Frame rate mode                          : Constant
Frame rate                               : 23.976 (24000/1001) fps
Color space                              : YUV
Chroma subsampling                       : 4:2:0
Bit depth                                : 8 bits
Scan type                                : Progressive
Bits/(Pixel*Frame)                       : 0.210
Stream size                              : 539 MiB (89%)
Title                                    : Girlfriends.Day.2017.WEBRip.x264-FGT
Writing library                          : x264 core 148 r2694 3b70645
Encoding settings                        : cabac=1 / ref=5 / deblock=1:-2:-2 / analyse=0x3:0x113 / me=umh / subme=8 / psy=1 / psy_rd=0.90:0.00 / mixed_ref=1 / me_range=16 / chroma_me=1 / trellis=1 / 8x8dct=1 / cqm=0 / deadzone=21,11 / fast_pskip=1 / chroma_qp_offset=-2 / threads=24 / lookahead_threads=2 / sliced_threads=0 / nr=0 / decimate=1 / interlaced=0 / bluray_compat=0 / constrained_intra=0 / bframes=3 / b_pyramid=2 / b_adapt=2 / b_bias=0 / direct=3 / weightb=1 / open_gop=0 / weightp=2 / keyint=250 / keyint_min=25 / scenecut=40 / intra_refresh=0 / rc_lookahead=50 / rc=abr / mbtree=1 / bitrate=1100 / ratetol=1.0 / qcomp=0.60 / qpmin=0 / qpmax=69 / qpstep=4 / vbv_maxrate=31250 / vbv_bufsize=31250 / nal_hrd=none / filler=0 / ip_ratio=1.40 / aq=1:1.00
Language                                 : English

Audio
ID                                       : 2
Format                                   : AAC
Format/Info                              : Advanced Audio Codec
Format profile                           : LC
Codec ID                                 : 40
Duration                                 : 1h 10mn
Duration_LastFrame                       : 32ms
Bit rate mode                            : Constant
Bit rate                                 : 128 Kbps
Channel(s)                               : 2 channels
Channel positions                        : Front: L R
Sampling rate                            : 48.0 KHz
Frame rate                               : 46.875 fps (1024 spf)
Compression mode                         : Lossy
Stream size                              : 64.4 MiB (11%)
Title                                    : Girlfriends.Day.2017.WEBRip.x264-FGT
Language                                 : English
Default                                  : Yes
Alternate group                          : 1

Subtitulos

Grupo: FGT
Versión: WEBRip XviD 720p AC3
Tamaño: 2.3 GB
Girlfriends.Day.2017.720p.WEBRip.XviD.AC3-FGT

Video
ID                                       : 0
Format                                   : MPEG-4 Visual
Format profile                           : Simple@L5
Format settings, BVOP                    : No
Format settings, QPel                    : No
Format settings, GMC                     : No warppoints
Format settings, Matrix                  : Default (H.263)
Codec ID                                 : XVID
Codec ID/Hint                            : XviD
Duration                                 : 1h 10mn
Bit rate                                 : 4 392 Kbps
Width                                    : 1 280 pixels
Height                                   : 534 pixels
Display aspect ratio                     : 2.40:1
Frame rate                               : 23.976 fps
Color space                              : YUV
Chroma subsampling                       : 4:2:0
Bit depth                                : 8 bits
Scan type                                : Progressive
Compression mode                         : Lossy
Bits/(Pixel*Frame)                       : 0.268
Stream size                              : 2.16 GiB (92%)
Writing library                          : Lavc57.16.101

Audio
ID                                       : 1
Format                                   : AC-3
Format/Info                              : Audio Coding 3
Mode extension                           : CM (complete main)
Format settings, Endianness              : Big
Codec ID                                 : 2000
Duration                                 : 1h 10mn
Bit rate mode                            : Constant
Bit rate                                 : 384 Kbps
Channel(s)                               : 6 channels
Channel positions                        : Front: L C R, Side: L R, LFE
Sampling rate                            : 48.0 KHz
Frame rate                               : 31.250 fps (1536 spf)
Compression mode                         : Lossy
Stream size                              : 193 MiB (8%)
Alignment                                : Aligned on interleaves
Interleave, duration                     : 42 ms (1.00 video frame)
Interleave, preload duration             : 512 ms

Subtitulos

Grupo: DEFLATE
Versión: WEBRip x264 1080p AC3
Tamaño: 3.3 GB
Girlfriends.Day.2017.1080p.WEBRip.X264-DEFLATE

Duration     : 1h 10mn 19s
Video        : X264 5d7902f @ CRF 17.0000
Resolution   : 1920x802 / 2.394:1
Frame Rate   : 23.976 fps
Audio        : AC-3 384 Kbps 6ch / 48 KHz
Language     : English
Subtitles    : English, English (SDH), French, German, Italian, Spanish
Source       : Netflix
Size         : 3,348.165 MB (3,510,805,394 bytes)
Notes        :
Trailer