78
PUNTOS
Calificar
CALIFICA
Calificar
Califica y/o escribe un comentario sobre la película.
Comentarios en el foroFORO

Contracorriente (2009)

Miguel es un pescador joven y querido de Cabo Blanco, un pequeño pueblo de pescadores de la costa norte de Perú, donde existen tradiciones muy arraigadas con respecto a la muerte. Miguel está casado con Mariela, embarazada de siete meses del primer hijo de ambos, pero tiene un romance extremadamente secreto con otro hombre, Santiago, un pintor que se mudó al pueblo hace un año y que es rechazado por la gente por ser agnóstico y abierto acerca de su sexualidad. Miguel se enfrenta a un gran dilema cuando Santiago se ahoga accidentalmente y regresa, después de muerto, a pedirle que encuentre su cuerpo en el mar y lo entierre, según los rituales del pueblo, para que su alma descanse. Hacerlo sería revelar su relación con Santiago, y arruinar su matrimonio y reputación. No hacerlo, sería sentenciarlo a vagar para siempre.
Director Javier Fuentes-León
Actores Cristian Mercado, Tatiana Astengo, Manolo Cardona
Duración 100 min
País Peru, Colombia, France, Germany
Streaming (Servicio externo)
Grupo: MonteriaOscura
Versión: DVDRip XviD
Tamaño: 1.2 GB
Video
ID                                       : 0
Format                                   : xvid
Codec ID                                 : xvid
Duration                                 : 1h 41mn
Bit rate                                 : 1 477 Kbps
Width                                    : 640 pixels
Height                                   : 360 pixels
Display aspect ratio                     : 16:9
Frame rate                               : 29.970 fps
Bits/(Pixel*Frame)                       : 0.214
Stream size                              : 1.04 GiB (84%)

Audio
ID                                       : 1
Format                                   : MPEG Audio
Format version                           : Version 1
Format profile                           : Layer 3
Mode                                     : Joint stereo
Codec ID                                 : 55
Codec ID/Hint                            : MP3
Duration                                 : 1h 41mn
Bit rate mode                            : Constant
Bit rate                                 : 256 Kbps
Channel(s)                               : 2 channels
Sampling rate                            : 48.0 KHz
Compression mode                         : Lossy
Stream size                              : 185 MiB (15%)
Alignment                                : Aligned on interleaves
Interleave, duration                     : 24 ms (0.72 video frame)
Writing library                          : LAME¥ÆP