75
PUNTOS
Calificar
CALIFICA
Calificar
Califica y/o escribe un comentario sobre la película.
Comentarios en el foroFORO

Who Am I - Kein System ist sicher (2014)

Benjamin, un joven alemán genio de las computadoras, se une a un grupo de hackers subversivo que quiere hacerse notar en el escenario del mundo.
Director Baran bo Odar
Actores Tom Schilling, Elyas M'Barek, Wotan Wilke Möhring
Duración 102 min
País Germany
Streaming (Servicio externo)
Grupo: EXQUiSiTE
Versión: BDRip x264 AC3
Tamaño: 800 MB
Who Am I - Kein System ist sicher (2014)                                          
                                                                       

Release Date ... : 10.04.2015  
Kinostart (D) .. : 25.09.2014

Runtime ........ : 101:46
IMDB-Rating .... : 7,5/10 (2.554 votes)

Ratecontrol .... : crf 19                              
Video .......... : 720x302 @ 689 kbps                                
Audio .......... : German AC3 5.1 @ 384 kbps                      
                    
Forced Subs .... : -
Vobsubs ........ : German
                                                             

http://www.imdb.com/title/tt3042408/

Subtitulos

Grupo: WAR
Versión: BRRip x264 AAC
Tamaño: 1.1 GB
Who.Am.I.Kein.System.ist.sicher.2014.BRRip.x264-WAR

General
Unique ID                      : 206411668162817961953308523085744861987 (0x9B4970F652540AD5B736AEC61DB87323)
Complete name                  : Who.Am.I.Kein.System.ist.sicher.2014.BRRip.x264-WAR.mkv
Format                         : Matroska
Format version                 : Version 2
File size                      : 1.10 GiB
Duration                       : 1h 41mn
Overall bit rate               : 1 543 Kbps
Encoded date                   : UTC 2015-04-29 15:29:12
Writing application            : mkvmerge v7.8.0 ('River Man') 32bit built on Mar 27 2015 16:18:02
Writing library                : libebml v1.3.1 + libmatroska v1.4.2
_STATISTICS_WRITING_APP        : mkvmerge v7.8.0 ('River Man') 32bit built on Mar 27 2015 16:18:02
_STATISTICS_WRITING_DATE_UTC   : 2015-04-29 15:29:12
_STATISTICS_TAGS               : BPS DURATION NUMBER_OF_FRAMES NUMBER_OF_BYTES
DURATION                       : 01:41:47.029000000
NUMBER_OF_FRAMES               : 286267
NUMBER_OF_BYTES                : 240304316

Video
ID                             : 1
Format                         : AVC
Format/Info                    : Advanced Video Codec
Format profile                 : [email protected]
Format settings, CABAC         : Yes
Format settings, ReFrames      : 5 frames
Codec ID                       : V_MPEG4/ISO/AVC
Duration                       : 1h 41mn
Nominal bit rate               : 1 226 Kbps
Width                          : 720 pixels
Height                         : 304 pixels
Display aspect ratio           : 2.35:1
Frame rate mode                : Constant
Frame rate                     : 25.000 fps
Color space                    : YUV
Chroma subsampling             : 4:2:0
Bit depth                      : 8 bits
Scan type                      : Progressive
Bits/(Pixel*Frame)             : 0.224
Writing library                : x264 core 146 r2538 121396c
Encoding settings              : cabac=1 / ref=5 / deblock=1:0:0 / analyse=0x3:0x113 / me=umh / subme=7 / psy=1 / psy_rd=1.00:0.00 / mixed_ref=1 / me_range=16 / chroma_me=1 / trellis=1 / 8x8dct=1 / cqm=0 / deadzone=21,11 / fast_pskip=1 / chroma_qp_offset=-2 / threads=3 / lookahead_threads=1 / sliced_threads=0 / nr=0 / decimate=1 / interlaced=0 / bluray_compat=0 / constrained_intra=0 / bframes=3 / b_pyramid=2 / b_adapt=1 / b_bias=0 / direct=1 / weightb=1 / open_gop=0 / weightp=2 / keyint=250 / keyint_min=25 / scenecut=40 / intra_refresh=0 / rc_lookahead=40 / rc=2pass / mbtree=1 / bitrate=1226 / ratetol=1.0 / qcomp=0.60 / qpmin=0 / qpmax=69 / qpstep=4 / cplxblur=20.0 / qblur=0.5 / vbv_maxrate=30000 / vbv_bufsize=48000 / nal_hrd=none / filler=0 / ip_ratio=1.40 / aq=1:1.00
Default                        : Yes
Forced                         : No

Audio
ID                             : 2
Format                         : AAC
Format/Info                    : Advanced Audio Codec
Format profile                 : LC
Codec ID                       : A_AAC
Duration                       : 1h 41mn
Channel(s)                     : 6 channels
Channel positions              : Front: L C R, Side: L R, LFE
Sampling rate                  : 48.0 KHz
Compression mode               : Lossy
Delay relative to video        : 9ms
Default                        : Yes
Forced                         : No

Subtitulos

Grupo: ETRG
Versión: BDRip x264 720p AAC
Tamaño: 800 MB
Who.Am.I.2014.720p.BluRay.x264.German.AAC-ETRG

General
Complete name                  : Who.Am.I.2014.720p.BluRay.x264.German.AAC-ETRG.mp4
Format                         : MPEG-4
Format profile                 : Base Media
Codec ID                       : isom
File size                      : 798 MiB
Duration                       : 1h 41mn
Overall bit rate mode          : Variable
Overall bit rate               : 1 096 Kbps
Encoded date                   : UTC 2015-06-29 06:54:57
Tagged date                    : UTC 2015-06-29 06:54:57

Video
ID                             : 1
Format                         : AVC
Format/Info                    : Advanced Video Codec
Format profile                 : [email protected]
Format settings, CABAC         : Yes
Format settings, ReFrames      : 5 frames
Codec ID                       : avc1
Codec ID/Info                  : Advanced Video Coding
Duration                       : 1h 41mn
Bit rate                       : 1 000 Kbps
Maximum bit rate               : 15.3 Mbps
Width                          : 1 280 pixels
Height                         : 544 pixels
Display aspect ratio           : 2.35:1
Frame rate mode                : Constant
Frame rate                     : 25.000 fps
Color space                    : YUV
Chroma subsampling             : 4:2:0
Bit depth                      : 8 bits
Scan type                      : Progressive
Bits/(Pixel*Frame)             : 0.057
Stream size                    : 728 MiB (91%)
Writing library                : x264 core 146 r2538 121396c
Encoding settings              : cabac=1 / ref=5 / deblock=1:-1:-1 / analyse=0x3:0x113 / me=umh / subme=9 / psy=1 / psy_rd=1.00:0.15 / mixed_ref=1 / me_range=24 / chroma_me=1 / trellis=2 / 8x8dct=1 / cqm=0 / deadzone=21,11 / fast_pskip=0 / chroma_qp_offset=-3 / threads=12 / lookahead_threads=1 / sliced_threads=0 / nr=0 / decimate=1 / interlaced=0 / bluray_compat=0 / constrained_intra=0 / bframes=3 / b_pyramid=2 / b_adapt=2 / b_bias=0 / direct=3 / weightb=1 / open_gop=0 / weightp=2 / keyint=250 / keyint_min=25 / scenecut=40 / intra_refresh=0 / rc_lookahead=60 / rc=2pass / mbtree=1 / bitrate=1000 / ratetol=1.0 / qcomp=0.70 / qpmin=0 / qpmax=65 / qpstep=4 / cplxblur=20.0 / qblur=0.5 / vbv_maxrate=31250 / vbv_bufsize=31250 / nal_hrd=none / filler=0 / ip_ratio=1.40 / aq=1:1.00
Encoded date                   : UTC 2015-06-18 11:02:59
Tagged date                    : UTC 2015-06-29 06:55:10
Color primaries                : BT.709
Matrix coefficients            : BT.709
Color range                    : Limited

Audio
ID                             : 2
Format                         : AAC
Format/Info                    : Advanced Audio Codec
Format profile                 : LC
Codec ID                       : 40
Duration                       : 1h 39mn
Bit rate mode                  : Variable
Bit rate                       : 93.4 Kbps
Maximum bit rate               : 132 Kbps
Channel(s)                     : 2 channels
Channel positions              : Front: L R
Sampling rate                  : 48.0 KHz
Compression mode               : Lossy
Stream size                    : 66.8 MiB (8%)
Encoded date                   : UTC 2015-06-29 06:55:04
Tagged date                    : UTC 2015-06-29 06:55:10

Subtitulos

Grupo: ETRG
Versión: BDRip x264 1080p AAC
Tamaño: 1.5 GB
Who.Am.I.2014.1080p.BluRay.x264.German.AAC-ETRG
General
Complete name                  : D:\Descargas\uTorrent\Who.Am.I.2014.1080p.BluRay.x264.German.AAC-ETRG\Who.Am.I.2014.1080p.BluRay.x264.German.AAC-ETRG.mp4
Format                         : MPEG-4
Format profile                 : Base Media
Codec ID                       : isom
File size                      : 1.49 GiB
Duration                       : 1h 41mn
Overall bit rate mode          : Variable
Overall bit rate               : 2 094 Kbps
Encoded date                   : UTC 2015-06-29 06:55:14
Tagged date                    : UTC 2015-06-29 06:55:14

Video
ID                             : 1
Format                         : AVC
Format/Info                    : Advanced Video Codec
Format profile                 : [email protected]
Format settings, CABAC         : Yes
Format settings, ReFrames      : 5 frames
Codec ID                       : avc1
Codec ID/Info                  : Advanced Video Coding
Duration                       : 1h 41mn
Bit rate                       : 1 998 Kbps
Maximum bit rate               : 26.7 Mbps
Width                          : 1 920 pixels
Height                         : 804 pixels
Display aspect ratio           : 2.40:1
Frame rate mode                : Constant
Frame rate                     : 25.000 fps
Color space                    : YUV
Chroma subsampling             : 4:2:0
Bit depth                      : 8 bits
Scan type                      : Progressive
Bits/(Pixel*Frame)             : 0.052
Stream size                    : 1.42 GiB (95%)
Encoded date                   : UTC 2015-06-18 14:08:33
Tagged date                    : UTC 2015-06-29 06:55:41
Color primaries                : BT.709
Matrix coefficients            : BT.709
Color range                    : Limited

Audio
ID                             : 2
Format                         : AAC
Format/Info                    : Advanced Audio Codec
Format profile                 : LC
Codec ID                       : 40
Duration                       : 1h 39mn
Bit rate mode                  : Variable
Bit rate                       : 7 932 bps
Nominal bit rate               : 93.4 Kbps
Maximum bit rate               : 132 Kbps
Channel(s)                     : 2 channels
Channel positions              : Front: L R
Sampling rate                  : 48.0 KHz
Compression mode               : Lossy
Stream size                    : 5.67 MiB (0%)
Encoded date                   : UTC 2015-06-29 06:55:38
Tagged date                    : UTC 2015-06-29 06:55:41

Subtitulos

Trailer