74
PUNTOS
Calificar
CALIFICA
Calificar
Califica y/o escribe un comentario sobre la película.
Comentarios en el foroFORO

John Wick (2014)

Jon Wick, interpretado por Keanu Reeves (Matrix) es un antiguo asesino a sueldo que observa impasible como un ladrón roba su coche, un Ford Mustang del 69, y mata al perro que su mujer le regaló. Wick persigue al delincuente y descubre que su padre es un jefe mafioso de Nueva York, que ha puesto una alta recompensa a cambio de su cabeza. Casualmente el contratado para darle caza es un sicario, encarnado por Willem Dafoe (Spiderman), un gran amigo y ex compañero suyo, que le recomendó a abandonar la peligrosa profesión después de la muerte de su mujer. El film dirigido por los primerizos David Leitch y Chad Stahelski, cuenta en su reparto con los actores Bridget Regan (Sexo en Nueva York: La película) y Adrianne Palickim (G.I. Joe: La venganza), entre otros.
Director Chad Stahelski, David Leitch
Actores Keanu Reeves, Michael Nyqvist, Alfie Allen, Willem Dafoe
Duración 101 min
Streaming (Servicio externo)
Grupo: ETRG
Versión: WEB-DL x264 720p
Tamaño: 3.13 GB
Length..............: 1h 41mn
Video...............: 1280x530 (X264 @ 23.976 fps)
Bitrate.............: 3951 Kbps
Audio...............: AC3
Language............: English
Subtitles...........: English
Genre ..............: Action

Subtitulos

Grupo: RARBG
Versión: WEB-DL XviD
Tamaño: 1.4 GB
Video
ID : 1
Format : AVC
Format/Info : Advanced Video Codec
Format profile : [email protected]
Format settings, CABAC : Yes
Format settings, ReFrames : 5 frames
Codec ID : avc1
Codec ID/Info : Advanced Video Coding
Duration : 1h 41mn
Bit rate : 1 100 Kbps
Width : 720 pixels
Height : 304 pixels
Display aspect ratio : 2.40:1
Original display aspect ratio : 2.40:1
Frame rate mode : Constant
Frame rate : 23.976 fps
Color space : YUV
Chroma subsampling : 4:2:0
Bit depth : 8 bits
Scan type : Progressive
Bits/(Pixel*Frame) : 0.210
Stream size : 792 MiB (89%)
Writing library : x264 core 142 r2455 021c0dc
Encoding settings : cabac=1 / ref=5 / deblock=1:-2:-2 / analyse=0x3:0x113 / me=umh / subme=8 / psy=1 / psy_rd=0.90:0.00 / mixed_ref=1 / me_range=16 / chroma_me=1 / trellis=1 / 8x8dct=1 / cqm=0 / deadzone=21,11 / fast_pskip=1 / chroma_qp_offset=-2 / threads=8 / lookahead_threads=2 / sliced_threads=0 / nr=0 / decimate=1 / interlaced=0 / bluray_compat=0 / constrained_intra=0 / bframes=3 / b_pyramid=2 / b_adapt=2 / b_bias=0 / direct=3 / weightb=1 / open_gop=0 / weightp=2 / keyint=250 / keyint_min=25 / scenecut=40 / intra_refresh=0 / rc_lookahead=50 / rc=abr / mbtree=1 / bitrate=1100 / ratetol=1.0 / qcomp=0.60 / qpmin=0 / qpmax=69 / qpstep=4 / vbv_maxrate=31250 / vbv_bufsize=31250 / nal_hrd=none / filler=0 / ip_ratio=1.40 / aq=1:1.00
Language : English

Audio
ID : 2
Format : AAC
Format/Info : Advanced Audio Codec
Format profile : LC
Codec ID : 40
Duration : 1h 41mn
Duration_LastFrame : 43ms
Bit rate mode : Constant
Bit rate : 128 Kbps
Channel(s) : 6 channels
Channel positions : Front: L C R, Side: L R, LFE
Sampling rate : 48.0 KHz
Compression mode : Lossy
Stream size : 92.7 MiB (10%)
Language : English



Subtitulos

Grupo: SPARKS
Versión: BDRip x264 RERip
Tamaño: 550 MB
Release.Date: 21.01.2015
Video.......: X264 @ crf 19
Frame.Rate..: 23.976
Resolution..: 720x300
Audio.......: AAC LC 2ch 48.0 KHz
Language....: English
Length......: 1h 41mn
Source......: Retail BluRay
Size........: 551MB
Subtitles...:  English, Spanish.

IMDb: http://www.imdb.com/title/tt2911666

now without any extra nonsense. apologies!

Subtitulos

Grupo: SANTi
Versión: BRRip XviD AC3
Tamaño: 1.4 GB
      Û      þ File Size: 1.42 GiB   þ Source: 1080p SPARKS             Û
      Û                                                                 Û
      Û       ÚÄÄÄÄÄÄ ViDEO ÄÄÄÄÄÄÄÄÄÄÄÄÄÄÄÄÄÄÄÄÄÄÄÄ AUDiO ÄÄÄÄÄ¿       Û
      Û           Codec: XviD                   Codec: AC-3             Û
      Û         Bitrate: 1566 kbps            Bitrate: 448 kbps         Û
      Û         Res/FPS: 720x304 / 23.976    Channels: 5.1              Û
      Û         Filters: BVOP-NoQpel-NoGMC-Default Matrix.              Û
      Û       ÀÄÄÄÄÄÄÄÄÄÄÄÄÄÄÄÄÄÄÄÄÄÄÄÄÄÄÄÄÄÄÄÄÄÄÄÄÄÄÄÄÄÄÄÄÄÄÄÄÄÙ       Û
Grupo: SPARKS
Versión: BDRip x264 720p RERip DTS
Tamaño: 4.4 GB
Release.Date: 21.01.2015
Video.......: X264 5537Kbps
Frame.Rate..: 23.976
Resolution..: 1280x536
Audio.......: AC-3 640Kbps 6ch
Language....: English
Length......: 1h 41mn
Source......: Retail BluRay
Size........: 4471MB
Subtitles...:  English, Spanish.

Subtitulos

Grupo: SPARKS
Versión: BDRip x264 1080p AC3
Tamaño: 6.7 GB
Release.Date: 21.01.2015
Video.......: X264 8631Kbps
Frame.Rate..: 23.976
Resolution..: 1920x800
Audio.......: AC-3 640Kbps 6ch
Language....: English
Length......: 1h 41mn
Source......: Retail BluRay
Size........: 6708MB
Subtitles...:  English, Spanish.

Subtitulos

Grupo: DEPTH
Versión: BDRip x265 2160p AC3 / Atmos
Tamaño: 13.6 GB
John.Wick.2014.2160p.UHD.BluRay.x265-DEPTH

date .......: 07/11/2017
video ......: 3836x1600 crf17 @ 13406kbps
audio ......: english atmos truehd 7.1 @ 4954kbps
english ac3 5.1 @ 640kbps
commentary aac 2.0 @ 108kbps
subtitles ..: english, spanish
size .......: 13891mb
runtime ....: 101min
imdb .......: http://www.imdb.com/title/tt2911666/
Trailer