82
PUNTOS
Calificar
CALIFICA
Calificar
Califica y/o escribe un comentario sobre la película.
Comentarios en el foroFORO

The Night of the Hunter (1955)

Tras realizar un atraco en el que han muerto dos personas, Ben Harper regresa a su casa y esconde el botín confiando el secreto a sus hijos. En la cárcel, antes de ser ejecutado, comparte celda con Harry Powell y en sueños habla del dinero. Tras ser puesto en libertad, Powell, obsesionado por apoderarse del botín, va al pueblo de Harper, enamora a su viuda y se casa con ella.
Director Charles Laughton
Actores Robert Mitchum, Shelley Winters, Lillian Gish
Duración 93 min
País USA
Streaming (Servicio externo)
Grupo: iMMORTALs
Versión: DVDRip XviD
Tamaño: 700 MB
Source............: DVD RETAiL R2
Theater Date......: 1955/09/29
Release Date......: 2005/03/13
IMDb Rating.......: 8.2/10 (7,264 votes) top 250: #128
Video Codec.......: XviD
Video Bitrate.....: 1006 kb/s
Video Framerate...: 25.000
Resolution........: 592x448 (1.32:1) FS
Audio Codec.......: MP3 ,monophonic VBR
Audio Bitrate.....: 87 kb/s
Language..........: English
Genre.............: Drama / Film-Noir / Thriller / Horror
Runtime...........: 88 min
Size..............: 49*15MB
Subs..............: English, Dutch, German, French,
                    Italian, Spanish, Swedish, Danish,
                    Nowegian, Finnish

Subtitulos

Grupo: Schubi
Versión: DVDRip DivX
Tamaño: 700 MB
General
Complete name                    : The.Night.of.the.Hunter.1955.DVDRip.DivX-Schubi.avi
Format                           : AVI
Format/Info                      : Audio Video Interleave
File size                        : 702 MiB
Duration                         : 1h 32mn
Overall bit rate                 : 1 059 Kbps
Writing application              : Nandub v1.0rc2
Writing library                  : Nandub build 1853/release

Video
ID                               : 0
Format                           : MPEG-4 Visual
Format settings, BVOP            : Yes
Format settings, QPel            : No
Format settings, GMC             : 2 warppoints
Format settings, Matrix          : Default (H.263)
Muxing mode                      : Packed bitstream
Codec ID                         : DX50
Codec ID/Hint                    : DivX 5
Duration                         : 1h 32mn
Bit rate                         : 935 Kbps
Width                            : 576 pixels
Height                           : 432 pixels
Display aspect ratio             : 4:3
Frame rate                       : 23.976 fps
Color space                      : YUV
Chroma subsampling               : 4:2:0
Bit depth                        : 8 bits
Scan type                        : Progressive
Compression mode                 : Lossy
Bits/(Pixel*Frame)               : 0.157
Stream size                      : 620 MiB (88%)
Writing library                  : DivX 5.0.2 (UTC 2002-05-16)

Audio
ID                               : 1
Format                           : MPEG Audio
Format version                   : Version 1
Format profile                   : Layer 3
Mode                             : Joint stereo
Mode extension                   : MS Stereo
Codec ID                         : 55
Codec ID/Hint                    : MP3
Duration                         : 1h 32mn
Bit rate mode                    : Variable
Bit rate                         : 111 Kbps
Minimum bit rate                 : 64.0 Kbps
Channel(s)                       : 2 channels
Sampling rate                    : 44.1 KHz
Compression mode                 : Lossy
Stream size                      : 73.7 MiB (11%)
Alignment                        : Aligned on interleaves
Interleave, duration             : 26 ms (0.63 video frame)
Interleave, preload duration     : 164 ms
Writing library                  : LAME3.92
Encoding settings                : -m j -V 5 -q 2 -lowpass 16.8 --vbr-old -b 64

Subtitulos