72
PUNTOS
Calificar
CALIFICA
Calificar
Califica y/o escribe un comentario sobre la película.
Comentarios en el foroFORO

Manhunter (1986)

Will Graham regresa a la policía persuadido por un compañero. Encargado de la difícil tarea de dar caza a un escurridizo asesino que ataca sólo los días de luna llena, Graham decide emplear métodos poco convencionales. De este modo, recurre al doctor Hannibal Lecter, otro asesino en serie, para entrar en la mente del asesino, pero esto le llevará a estar expuesto a la inteligencia de un genio poniendo en peligro su salud mental.
Director Michael Mann
Actores William Petersen, Kim Greist, Joan Allen
Duración 119 min
País USA
Streaming (Servicio externo)
Grupo: MgB
Versión: BRRip x264 720p AC3
Tamaño: 2.06 GB
General
Unique ID                      : 204608090302983298392377768810118255172 (0x99EE15B54FAEED37A1BCEF5214B21244)
Complete name                  : Manhunter 1986 720p BRRip x264-MgB.mkv
Format                         : Matroska
Format version                 : Version 2
File size                      : 2.05 GiB
Duration                       : 2h 0mn
Overall bit rate               : 2 449 Kbps
Encoded date                   : UTC 2012-05-24 17:46:39
Writing application            : mkvmerge v5.5.0 ('Healer') built on Apr  6 2012 21:43:24
Writing library                : libebml v1.2.3 + libmatroska v1.3.0

Video
ID                             : 1
Format                         : AVC
Format/Info                    : Advanced Video Codec
Format profile                 : [email protected]
Format settings, CABAC         : Yes
Format settings, ReFrames      : 8 frames
Muxing mode                    : Header stripping
Codec ID                       : V_MPEG4/ISO/AVC
Duration                       : 2h 0mn
Bit rate                       : 2 000 Kbps
Width                          : 1 280 pixels
Height                         : 544 pixels
Display aspect ratio           : 2.35:1
Frame rate mode                : Constant
Frame rate                     : 23.976 fps
Color space                    : YUV
Chroma subsampling             : 4:2:0
Bit depth                      : 8 bits
Scan type                      : Progressive
Bits/(Pixel*Frame)             : 0.120
Stream size                    : 1.64 GiB (80%)
Writing library                : x264 core 120
Encoding settings              : cabac=1 / ref=8 / deblock=1:-3:-3 / analyse=0x3:0x113 / me=hex / subme=7 / psy=1 / psy_rd=1.00:0.00 / mixed_ref=1 / me_range=16 / chroma_me=1 / trellis=1 / 8x8dct=1 / cqm=0 / deadzone=21,11 / fast_pskip=1 / chroma_qp_offset=-2 / threads=3 / sliced_threads=0 / nr=0 / decimate=1 / interlaced=0 / bluray_compat=0 / constrained_intra=0 / bframes=3 / b_pyramid=2 / b_adapt=2 / b_bias=0 / direct=1 / weightb=1 / open_gop=0 / weightp=2 / keyint=240 / keyint_min=24 / scenecut=40 / intra_refresh=0 / rc_lookahead=50 / rc=2pass / mbtree=1 / bitrate=2000 / ratetol=1.0 / qcomp=0.60 / qpmin=3 / qpmax=69 / qpstep=4 / cplxblur=20.0 / qblur=0.5 / ip_ratio=1.40 / aq=1:1.00
Default                        : Yes
Forced                         : No
Color primaries                : BT.709
Transfer characteristics       : BT.709
Matrix coefficients            : BT.709
Color range                    : Limited

Audio
ID                             : 2
Format                         : AC-3
Format/Info                    : Audio Coding 3
Mode extension                 : CM (complete main)
Format settings, Endianness    : Big
Muxing mode                    : Header stripping
Codec ID                       : A_AC3
Duration                       : 2h 0mn
Bit rate mode                  : Constant
Bit rate                       : 448 Kbps
Channel(s)                     : 6 channels
Channel positions              : Front: L C R, Side: L R, LFE
Sampling rate                  : 48.0 KHz
Bit depth                      : 16 bits
Compression mode               : Lossy
Stream size                    : 385 MiB (18%)
Language                       : English
Default                        : Yes
Forced                         : No

Subtitulos

Grupo: 7SinS
Versión: BDRip x264 REMASTERED 720p
Tamaño: 5.5 GB
RLSNAME-----------> Manhunter.1986.720p.REMASTERED.BluRay.X264-7SinS
YEAR--------------> 1986
URL---------------> http://www.imdb.com/title/tt0091474/
VIDEO-------------> 1280x544
LANGUAGE(s)-------> english dts @ 1509kb/s
SUB(s)------------> english