63
PUNTOS
Calificar
CALIFICA
Calificar
Califica y/o escribe un comentario sobre la película.
Comentarios en el foroFORO

Mars Attacks! (1996)

Los marcianos, seres con grandes cabezas verdes y un idioma extraño, llegan a la tierra en enormes naves. En principio, la mayoría de los habitantes del mundo suponen que los extraños vienen en son de paz. Al poco tiempo los extraterrestres muestran sus verdaderas intensiones invasivas e inician una ola de destrucción.
Director Tim Burton
Actores Jack Nicholson, Pierce Brosnan, Sarah Jessica Parker
Duración 106 min
País USA
Streaming (Servicio externo)
Grupo: EXViDiNT
Versión: BDRip XviD INTERNAL AC3
Tamaño: 1.4 GB
Mars.Attacks.1996.iNTERNAL.BDRip.XviD-EXViDiNT

EXViD aims to iNTERNAL those releases which have been lost in the archives.
EXViD aims to PRE non-internal releases which have poor sources and are likely skipped by others.

http://www.imdb.com/title/tt0116996/
Subtitles: EN, FR, DE, IT, ES, NL, ZH, KO, CS, DA, FI, EL, NO, PT, RO, SV, TH, JA
Date: 2012.03

Director: Tim Burton

Genres: Action | Comedy | Fantasy | Sci-Fi | Thriller

Plot:
It is a normal day for everyone, until the President of the United States announces Martians have
been spotted circling Earth. The Martians land and a meeting is arranged, but not everything goes
to plan, and the Martians seem to have other plans for Earth. Are they just misunderstood beings
or do they really want to destroy all of humanity?

Cast:
Jack Nicholson	...	President James Dale
Glenn Close	...	First Lady Marsha Dale
Annette Bening	...	Barbara Land
Pierce Brosnan	...	Professor Donald Kessler
Danny DeVito	...	Rude Gambler
Martin Short	...	Press Secretary Jerry Ross
Sarah Jessica Parker	...	Nathalie Lake
Michael J. Fox	...	Jason Stone
Rod Steiger	...	General Decker
Tom Jones	...	Himself
Jim Brown	...	Byron Williams
Lukas Haas	...	Richie Norris
Natalie Portman	...	Taffy Dale
Pam Grier	...	Louise Williams
Lisa Marie	...	Martian Girl

Stats:
Format                                   : AVI
Format/Info                              : Audio Video Interleave
File size                                : 1.37 GiB
Duration                                 : 1h 45mn
Overall bit rate                         : 1 851 Kbps

Video
ID                                       : 0
Format                                   : MPEG-4 Visual
Format profile                           : Advanced Simple@L5
Format settings, BVOP                    : 2
Format settings, QPel                    : No
Format settings, GMC                     : No warppoints
Format settings, Matrix                  : Default (MPEG)
Codec ID                                 : XVID
Codec ID/Hint                            : XviD
Duration                                 : 1h 45mn
Bit rate                                 : 1 394 Kbps
Width                                    : 640 pixels
Height                                   : 272 pixels
Display aspect ratio                     : 2.35:1
Frame rate                               : 23.976 fps
Color space                              : YUV
Chroma subsampling                       : 4:2:0
Bit depth                                : 8 bits
Scan type                                : Progressive
Compression mode                         : Lossy
Bits/(Pixel*Frame)                       : 0.334
Stream size                              : 1.03 GiB (75%)
Writing library                          : XviD 64

Audio
ID                                       : 1
Format                                   : AC-3
Format/Info                              : Audio Coding 3
Mode extension                           : CM (complete main)
Codec ID                                 : 2000
Duration                                 : 1h 45mn
Bit rate mode                            : Constant
Bit rate                                 : 448 Kbps
Channel(s)                               : 6 channels
Channel positions                        : Front: L C R, Side: L R, LFE
Sampling rate                            : 48.0 KHz
Bit depth                                : 16 bits
Compression mode                         : Lossy
Stream size                              : 339 MiB (24%)
Alignment                                : Aligned on interleaves
Interleave, duration                     : 42 ms (1.00 video frame)

Release notes:
Enjoy!

Subtitulos

Grupo: NoGrp
Versión: DVDRip XviD
Tamaño: 1.4 GB
Grupo: CiNEFiLE
Versión: BDRip x264 1080p DTS
Tamaño: 8 GB
Mars.Attacks.1996.1080p.BluRay.x264-CiNEFiLE

Release Date ......: 09/04/10
Video .............. x264 @ 9247
Audio .............. English DTS 1510kbit/s
Subtitles .......... English
Length ............. 105 min 45 sec
Size ............... 7.94 gigs

Subtitulos