74
PUNTOS
Calificar
CALIFICA
Calificar
Califica y/o escribe un comentario sobre la película.
Comentarios en el foroFORO

Man on the Moon (1999)

Cuando Andy Kaufman era un niño ya le gustaba organizar espectáculos de variedades, aunque no tuviera público. De adulto empieza a destacar como humorista y es descubierto por el cazatalentos George Shapiro, que le consigue un papel en "Taxi", una famosa serie de televisión, en la que, gracias a sus dotes cómicas, alcanza una gran popularidad. A pesar de ello, se plantea nuevos retos: con su colega Bob Zmuda crea el personaje de Tony Clifton, su "alter ego"; además, organiza espectáculos de lucha libre entre mujeres que le ocasionan numerosos problemas.
Director Milos Forman
Actores Jim Carrey, Danny DeVito, Gerry Becker
Duración 118 min
País UK | Germany | Japan | USA
Streaming (Servicio externo)
Grupo: U-ART
Versión: DVDRip XviD AC3 INTERNAL
Tamaño: 1.4 GB
Disk 1
File size                        : 701 MiB
Duration                         : 57mn 27s
Overall bit rate                 : 1706 Kbps

Video
Format                           : MPEG-4 Visual
Format profile                   : [email protected]
Format settings, BVOP            : Yes
Format settings, QPel            : No
Format settings, GMC             : No warppoints
Format settings, Matrix          : Default
Muxing mode                      : Packed bitstream
Codec ID                         : XVID
Codec ID/Hint                    : XviD
Duration                         : 57mn 27s
Bit rate                         : 802 Kbps
Width                            : 576 pixels
Height                           : 240 pixels
Display aspect ratio             : 2.400
Frame rate                       : 25.000 fps
Resolution                       : 24 bits
Colorimetry                      : 4:2:0
Scan type                        : Progressive
Bits/(Pixel*Frame)               : 0.232
Stream size                      : 330 MiB (47%)
Writing library                  : XviD 1.0.0 (UTC 2004-05-09)

Audio #1
Format                           : AC-3
Format/Info                      : Audio Coding 3
Codec ID                         : 2000
Duration                         : 57mn 27s
Bit rate mode                    : Constant
Bit rate                         : 448 Kbps
Channel(s)                       : 6 channels
Channel positions                : Front: L C R, Rear: L R, LFE
Sampling rate                    : 48.0 KHz
Stream size                      : 184 MiB (26%)
Alignment                        : Aligned on interleaves
Interleave, duration             : 128 ms (3.20 video frames)
Interleave, preload duration     : 128 ms

Audio #2
Format                           : AC-3
Format/Info                      : Audio Coding 3
Codec ID                         : 2000
Duration                         : 57mn 27s
Bit rate mode                    : Constant
Bit rate                         : 448 Kbps
Channel(s)                       : 6 channels
Channel positions                : Front: L C R, Rear: L R, LFE
Sampling rate                    : 48.0 KHz
Stream size                      : 184 MiB (26%)
Alignment                        : Aligned on interleaves
Interleave, duration             : 128 ms (3.20 video frames)
Interleave, preload duration     : 128 ms

Disk 2
File size                        : 700 MiB
Duration                         : 55mn 58s
Overall bit rate                 : 1750 Kbps

Video
Format                           : MPEG-4 Visual
Format profile                   : [email protected]
Format settings, BVOP            : Yes
Format settings, QPel            : No
Format settings, GMC             : No warppoints
Format settings, Matrix          : Default
Muxing mode                      : Packed bitstream
Codec ID                         : XVID
Codec ID/Hint                    : XviD
Duration                         : 55mn 58s
Bit rate                         : 846 Kbps
Width                            : 576 pixels
Height                           : 240 pixels
Display aspect ratio             : 2.400
Frame rate                       : 25.000 fps
Resolution                       : 24 bits
Colorimetry                      : 4:2:0
Scan type                        : Progressive
Bits/(Pixel*Frame)               : 0.245
Stream size                      : 339 MiB (48%)
Writing library                  : XviD 1.0.0 (UTC 2004-05-09)

Audio #1
Format                           : AC-3
Format/Info                      : Audio Coding 3
Codec ID                         : 2000
Duration                         : 55mn 58s
Bit rate mode                    : Constant
Bit rate                         : 448 Kbps
Channel(s)                       : 6 channels
Channel positions                : Front: L C R, Rear: L R, LFE
Sampling rate                    : 48.0 KHz
Video delay                      : 24ms
Stream size                      : 179 MiB (26%)
Alignment                        : Split accross interleaves
Interleave, duration             : 128 ms (3.20 video frames)
Interleave, preload duration     : 128 ms

Audio #2
Format                           : AC-3
Format/Info                      : Audio Coding 3
Codec ID                         : 2000
Duration                         : 55mn 58s
Bit rate mode                    : Constant
Bit rate                         : 448 Kbps
Channel(s)                       : 6 channels
Channel positions                : Front: L C R, Rear: L R, LFE
Sampling rate                    : 48.0 KHz
Video delay                      : 24ms
Stream size                      : 179 MiB (26%)
Alignment                        : Split accross interleaves
Interleave, duration             : 128 ms (3.20 video frames)
Interleave, preload duration     : 128 ms