74
PUNTOS
Calificar
CALIFICA
Calificar
Califica y/o escribe un comentario sobre la película.
Comentarios en el foroFORO

Die unendliche Geschichte (1984)

Escondido en el desván de su colegio, Bastian devora durante las horas de clase un libro enigmático, ”La historia interminable”, que relata la paulatina destrucción del Reino de Fantasía. Una especie de ”Nada” misteriosa destruye el país y a las criaturas que lo habitan. A medida que avanza en la lectura, Bastian se da cuenta de que la salvación de Fantasía depende de él; de que consiga entrar dentro del libro...
Director Wolfgang Petersen
Actores Noah Hathaway, Barret Oliver, Tami Stronach
Duración 102 min
País West Germany¬†| USA
Streaming (Servicio externo)
Grupo: NoGRP
Versión: DVDRip DivX
Tamaño: 686 MB
File Name .......: The.NeverEnding.Story.1984.DVDRip.DivX3LM.avi
File Size .......: 686,21 MB

Duration ........: 01:34:02
Video Codec .....: Low motion DivX MPEG-4
Video Bitrate ...: 892 KB/s
Resolution ......: 576 x 240
Aspect Ratio ....: 2.40:1
Framerate .......: 23,976 FPS

Audio Codec .....: MPEG-1 Layer 3 (MP3)
Audio Bitrate ...: 128 KB/s (CBR)
Channels ........: 2 Ch
Grupo: VCDVaULT
Versión: DVDRip DivX INTERNAL
Tamaño: 700 MB
General
Complete name                    : The.NeverEnding.Story.1984.iNT.DVDRip.XviD-VCDVaULT.avi
Format                           : AVI
Format/Info                      : Audio Video Interleave
File size                        : 686 MiB
Duration                         : 1h 34mn
Overall bit rate                 : 1 020 Kbps
Movie name                       : The NeverEnding Story
Director                         : CLiX
Subject                          : The NeverEnding Story
Writing application              : Nandub v0.26
Writing library                  : Nandub build 1698/release
Copyright                        : 2001

Video
ID                               : 0
Format                           : MPEG-4 Visual
Codec ID                         : DIV3
Codec ID/Hint                    : DivX 3 Low
Duration                         : 1h 34mn
Bit rate                         : 883 Kbps
Width                            : 576 pixels
Height                           : 240 pixels
Display aspect ratio             : 2.400
Frame rate                       : 23.976 fps
Resolution                       : 24 bits
Bits/(Pixel*Frame)               : 0.266
Stream size                      : 594 MiB (87%)

Audio
ID                               : 1
Format                           : MPEG Audio
Format version                   : Version 1
Format profile                   : Layer 3
Codec ID                         : 55
Codec ID/Hint                    : MP3
Duration                         : 1h 34mn
Bit rate mode                    : Constant
Bit rate                         : 128 Kbps
Channel(s)                       : 2 channels
Sampling rate                    : 48.0 KHz
Resolution                       : 16 bits
Stream size                      : 86.1 MiB (13%)
Alignment                        : Split accross interleaves
Interleave, duration             : 42 ms (1.00 video frame)
Interleave, preload duration     : 451 ms