69
PUNTOS
Calificar
CALIFICA
Calificar
Califica y/o escribe un comentario sobre la película.
Comentarios en el foroFORO

The Seventh Victim (1943)

Mary (Kim Hunter), una joven provinciana, decide ir a Nueva York para buscar a su hermana Jacqueline (Jean Brooks), que ha desaparecido. Con la ayuda de su ex marido (Tom Conway) y de un prestigioso psiquiatra, Mary descubre horrorizada que la desaparición de su hermana está relacionada con una secta satánica.
Director Mark Robson
Actores Kim Hunter, Tom Conway, Jean Brooks
Duración 71 min
País USA
Streaming (Servicio externo)
Grupo: FRAGMENT
Versión: DVDRip XviD FS
Tamaño: 700 MB
General
Complete name                    : The.Seventh.Victim.1943.FS.DVDRip.XviD-FRAGMENT.avi
Format                           : AVI
Format/Info                      : Audio Video Interleave
File size                        : 699 MiB
Duration                         : 1h 10mn
Overall bit rate                 : 1 377 Kbps
Writing application              : Nandub v1.0rc2
Writing library                  : Nandub build 1852/release

Video
Format                           : MPEG-4 Visual
Format profile                   : Streaming Video@L1
Format settings, BVOP            : Yes
Format settings, QPel            : No
Format settings, GMC             : No warppoints
Format settings, Matrix          : Default
Muxing mode                      : Packet Bitstream
Codec ID                         : XVID
Codec ID/Hint                    : XviD
Duration                         : 1h 10mn
Bit rate                         : 1 282 Kbps
Width                            : 640 pixels
Height                           : 464 pixels
Display aspect ratio             : 1.379
Frame rate                       : 23.976 fps
Resolution                       : 24 bits
Colorimetry                      : 4:2:0
Scan type                        : Progressive
Bits/(Pixel*Frame)               : 0.180
Stream size                      : 650 MiB (93%)
Writing library                  : XviD 1.0.3 (UTC 2004-12-20)

Audio
Format                           : MPEG Audio
Format version                   : Version 1
Format profile                   : Layer 3
Codec ID                         : 55
Codec ID/Hint                    : MP3
Duration                         : 1h 10mn
Bit rate mode                    : Constant
Bit rate                         : 32.0 Kbps
Channel(s)                       : 1 channel
Sampling rate                    : 48.0 KHz
Resolution                       : 16 bits
Stream size                      : 41.8 MiB (6%)
Alignment                        : Aligned on interleaves
Interleave, duration             : 24 ms (0.58 video frame)
Interleave, preload duration     : 480 ms
Writing library                  : LAME3.93