71
PUNTOS
Calificar
CALIFICA
Calificar
Califica y/o escribe un comentario sobre la película.
Comentarios en el foroFORO

The Matrix Reloaded (2003)

¿Qué sucedería si mañana esta guerra pudiera terminarse? ¿No merece la pena luchar por eso? ¿No merece la pena morir por eso? Thomas "Neo" Anderson (Keanu Reeves) tomó una costosa decisión cuando decidió hacer la pregunta que Morfeo (Laurence Fishburne) y Trinity (Carrie-Anne Moss) habían formulado antes que él. Buscar y aceptar la verdad. Liberar su mente de Matrix. Todo comienza con la decisión. Ahora, en el segundo capítulo de la trilogía de Matrix, Neo adquiere un mayor dominio de sus extraordinarios poderes mientras Sión cae sitiada por el Ejército de las Máquinas. Sólo una cuestión de horas separa al último enclave humano en la Tierra de 250.000 Centinelas programados para destruir a la humanidad. Pero los ciudadanos de Sión, animados por la convicción de Morfeo de que el Elegido hará realidad la Profecía del Oráculo y pondrá fin a la guerra con las Máquinas, ponen todas sus esperanzas y expectativas en Neo, que se encuentra bloqueado por visiones inquietantes mientras busca qué medidas tomar. Nunca podemos ver más allá de una decisión que no entendemos. Fortalecidos por su amor mutuo y por su creencia en sí mismos, Neo y Trinity deciden volver a Matrix con Morfeo y desatar su arsenal de extraordinarias destrezas y armas contra las sistemáticas fuerzas de represión y explotación. Pero existen poderosas figuras dentro de Matrix que niegan el artificio de la decisión, eludiendo la responsabilidad que supone, al tiempo que se alimentan de las verdades emocionales de los demás. La decisión es una ilusión creada entre los que tienen poder y los que no lo tienen. Entretanto, hay exiliados como el Agente Smith (HUGO WEAVING), cuya inexorable conexión con Neo le obliga a desobedecer al sistema que ha pedido su eliminación. Impulsado por la humanidad que en otro tiempo despreció, Smith destruirá todo lo que se interponga en su camino en su búsqueda de venganza. ¿Qué quieren todos los hombres con poder? Más poder. En su peligroso viaje para comprender mejor al constructor de Matrix y su decisivo papel en el destino de la humanidad, Neo se enfrentará a una mayor resistencia, a una verdad aún mayor y a una decisión más imposible de lo jamás imaginó. No viniste aquí para tomar la decisión. Ya la habías tomado. Estás aquí para tratar de entender por qué la tomaste. En la confluencia de amor y verdad, fe y conocimiento, intención y razón, Neo debe seguir el camino que ha elegido. "¿Qué sucederá si no puedo?", pregunta. "¿Qué sucederá si fracaso?" Entonces Sión caerá.
Director Andy Wachowski, Lana Wachowski
Actores Keanu Reeves, Laurence Fishburne, Carrie-Anne Moss
Duración 138 min
País USA | Australia
Streaming (Servicio externo)
Grupo: Pr0nStarS
Versión: DVDRip XviD REPACK
Tamaño: 1.4 GB
Matrix.Reloaded.REPACK.DVDRip.DivX-Pr0nStarS
                                                                       
RELEASE.DATE..08.08.2003                     
SiZE.CD 1.....49*15MB                 
THEATRE DATE..18.05.2003                     SiZE.CD.2.....49*15MB   
STORE DATE....14.10.2003                    
 RUNNiNG.TiME..138 Mins   
SOURCE........DVD                            
CODEC.........DivX 3.11
AUDIO.BiTRATE.150 kb/sec VBR MP3             
GENRE.........Sci-Fi / Action
ViDEO.BiTRATE.1353 kb/sec                    RESOLUTiON....640x272
ASPECT RATiO..2:35: 1                       
RATiNG........7.3/10 (29,009 votes)
Opening.......3,603 Screens
http://www.imdb.com/title/tt0234215/

Subtitulos

Grupo: ZEN
Versión: DVDRip XviD AC3
Tamaño: 1.4 GB

Subtitulos

Grupo: TmN
Versión: DVDRip XviD AC3 INTERNAL
Tamaño: 1.4 GB
General
Complete name                    : D:\Emule\The.Matrix.Reloaded.(2003).CD2.iNTERNAL.DVDRiP.AC3.XviD-TmN.[sharethefiles.com].avi
Format                           : AVI
Format/Info                      : Audio Video Interleave
File size                        : 697 MiB
Duration                         : 1h 1mn
Overall bit rate                 : 1 577 Kbps
Movie name                       : The.Matrix.Reloaded.INTERNAL.AC3.XviDVD-TmN CD2
Director                         : [TmN]
Subject                          : The.Matrix.Reloaded.INTERNAL.AC3.XviDVD-TmN CD2
Writing application              : Nandub v1.0rc2
Writing library                  : Nandub build 1852/release
Copyright                        : Trinity and The Oracle
Comment                          : The.Matrix.Reloaded.INTERNAL.AC3.XviDVD-TmN CD2

Video
Format                           : MPEG-4 Visual
Format profile                   : Simple Streaming [email protected]
Format settings, BVOP            : No
Format settings, QPel            : Yes
Format settings, GMC             : 2 warppoints
Format settings, Matrix          : Default
Codec ID                         : XVID
Codec ID/Hint                    : XviD
Duration                         : 1h 1mn
Bit rate                         : 1 186 Kbps
Width                            : 640 pixels
Height                           : 272 pixels
Display aspect ratio             : 2.35
Frame rate                       : 25.000 fps
Resolution                       : 24 bits
Colorimetry                      : 4:2:0
Scan type                        : Progressive
Bits/(Pixel*Frame)               : 0.272
Stream size                      : 524 MiB (75%)
Writing library                  : XviD 0.0.12 (UTC 2003-06-11)

Audio
Format                           : AC-3
Format/Info                      : Audio Coding 3
Codec ID                         : 2000
Duration                         : 1h 1mn
Bit rate mode                    : Constant
Bit rate                         : 384 Kbps
Channel(s)                       : 6 channels
Channel positions                : Front: L C R, Surround: L R, LFE
Sampling rate                    : 48.0 KHz
Stream size                      : 170 MiB (24%)
Alignment                        : Split accross interleaves
Interleave, duration             : 96 ms (2.40 video frames)
Interleave, preload duration     : 5000 ms

Subtitulos

Grupo: TmN Extras
Versión: DVDRip XviD AC3
Tamaño: 1.4 GB

Subtitulos

Grupo: CHD
Versión: BDRip x264 720p
Tamaño: 7.9 GB

Subtitulos

Grupo: hV
Versión: BDRip x264 1080p AC3
Tamaño: 7.9 GB
General #0
Complete name        : The.Matrix.Reloaded.(2003).HDDVDRip.1080P.AC3.x264-hV.mkv
Format               : Matroska
File size            : 7.95 GiB
PlayTime             : 2h 18mn
Bit rate             : 8228 Kbps
Encoded date         : UTC 2007-06-27 17:52:15
Writing application  : mkvmerge v2.0.2 ('You're My Flame') built on Feb             21 2007 23      :40:55
Writing library      : libebml v0.7.7 + libmatroska v0.8.1

Video #0
Codec                : MPEG-4 AVC
Codec/Info           : MPEG4 ISO advanced profile
PlayTime             : 2h 18mn
Width                : 1920 pixels
Height               : 800 pixels
Aspect ratio         : 2.400
Frame rate           : 23.976 fps
Language             : English

Audio #0
Codec                : AC3
Codec/Info           : Dolby AC3
Channel(s)           : 6 channels
Sampling rate        : 48 KHz
Language             : English

Text #0
Codec                : UTF-8
Codec/Info           : UTF-8 Plain Text
Language             : English

Text #1
Codec                : UTF-8
Codec/Info           : UTF-8 Plain Text
Language             : Swedish

Subtitulos

Grupo: WiKi
Versión: BDRip x264 1080p DTS
Tamaño: 12.9 GB
RUNTIME.........................: 2h 18mn
SIZE............................: 12.9 GiB
VIDEO CODEC.....................: x264, 2 pass, L4.1
FRAMERATE.......................: 23,976 fps
BITRATE.........................: 10.9 Mbps
RESOLUTION......................: 1920x800
AUDIO1..........................: English DTS 5.1 1536 kbps
AUDIO2..........................: Chinese AC3 384 kbps
SOURCE..........................: BluRay

Subtitulos

Grupo: RARBG
Versión: BDRip H.264 720p AAC
Tamaño: 1.6 GB
The.Matrix.Reloaded.2003.720p.BluRay.H264.AAC-RARBG

Video
ID : 1
Format : AVC
Format/Info : Advanced Video Codec
Format profile : [email protected]
Format settings, CABAC : Yes
Format settings, ReFrames : 4 frames
Codec ID : avc1
Codec ID/Info : Advanced Video Coding
Duration : 2 h 18 min
Bit rate : 1 500 kb/s
Width : 1 280 pixels
Height : 532 pixels
Display aspect ratio : 2.40:1
Frame rate mode : Constant
Frame rate : 23.976 (23976/1000) FPS
Color space : YUV
Chroma subsampling : 4:2:0
Bit depth : 8 bits
Scan type : Progressive
Bits/(Pixel*Frame) : 0.092
Stream size : 1.45 GiB (87%)
Writing library : x264 core 152 r2851M ba24899
Encoding settings : cabac=1 / ref=4 / deblock=1:-1:-1 / analyse=0x3:0x113 / me=umh / subme=9 / psy=1 / psy_rd=1.00:0.15 / mixed_ref=1 / me_range=24 / chroma_me=1 / trellis=2 / 8x8dct=1 / cqm=0 / deadzone=21,11 / fast_pskip=1 / chroma_qp_offset=-3 / threads=32 / lookahead_threads=4 / sliced_threads=0 / nr=0 / decimate=1 / interlaced=0 / bluray_compat=0 / constrained_intra=0 / bframes=3 / b_pyramid=2 / b_adapt=2 / b_bias=0 / direct=3 / weightb=1 / open_gop=0 / weightp=2 / keyint=250 / keyint_min=25 / scenecut=40 / intra_refresh=0 / rc_lookahead=50 / rc=2pass / mbtree=1 / bitrate=1500 / ratetol=1.0 / qcomp=0.60 / qpmin=0 / qpmax=69 / qpstep=4 / cplxblur=20.0 / qblur=0.5 / vbv_maxrate=31250 / vbv_bufsize=31250 / nal_hrd=none / filler=0 / ip_ratio=1.40 / aq=3:1.00
Encoded date : UTC 2017-12-20 12:27:19
Tagged date : UTC 2017-12-20 12:27:19

Audio
ID : 2
Format : AAC
Format/Info : Advanced Audio Codec
Format profile : LC
Codec ID : 40
Duration : 2 h 18 min
Bit rate mode : Constant
Bit rate : 224 kb/s
Channel(s) : 2 channels
Channel(s)_Original : 6 channels
Channel positions : Front: L C R, Side: L R, LFE
Sampling rate : 48.0 kHz
Frame rate : 46.875 FPS (1024 spf)
Compression mode : Lossy
Stream size : 222 MiB (13%)
Language : English
Default : Yes
Alternate group : 1
Encoded date : UTC 2017-12-20 12:27:19
Tagged date : UTC 2017-12-20 12:27:19

Subtitulos

Grupo: RARBG
Versión: BDRip H.264 1080p AAC
Tamaño: 2.6 GB
The.Matrix.Reloaded.2003.1080p.BluRay.H264.AAC-RARBG

Video
ID : 1
Format : AVC
Format/Info : Advanced Video Codec
Format profile : [email protected]
Format settings, CABAC : Yes
Format settings, ReFrames : 4 frames
Codec ID : avc1
Codec ID/Info : Advanced Video Coding
Duration : 2 h 18 min
Bit rate : 2 500 kb/s
Width : 1 920 pixels
Height : 798 pixels
Display aspect ratio : 2.40:1
Frame rate mode : Constant
Frame rate : 23.976 (23976/1000) FPS
Color space : YUV
Chroma subsampling : 4:2:0
Bit depth : 8 bits
Scan type : Progressive
Bits/(Pixel*Frame) : 0.068
Stream size : 2.41 GiB (92%)
Writing library : x264 core 152 r2851M ba24899
Encoding settings : cabac=1 / ref=4 / deblock=1:-1:-1 / analyse=0x3:0x113 / me=umh / subme=9 / psy=1 / psy_rd=1.00:0.15 / mixed_ref=1 / me_range=24 / chroma_me=1 / trellis=2 / 8x8dct=1 / cqm=0 / deadzone=21,11 / fast_pskip=1 / chroma_qp_offset=-3 / threads=32 / lookahead_threads=4 / sliced_threads=0 / nr=0 / decimate=1 / interlaced=0 / bluray_compat=0 / constrained_intra=0 / bframes=3 / b_pyramid=2 / b_adapt=2 / b_bias=0 / direct=3 / weightb=1 / open_gop=0 / weightp=2 / keyint=250 / keyint_min=25 / scenecut=40 / intra_refresh=0 / rc_lookahead=50 / rc=2pass / mbtree=1 / bitrate=2500 / ratetol=1.0 / qcomp=0.60 / qpmin=0 / qpmax=69 / qpstep=4 / cplxblur=20.0 / qblur=0.5 / vbv_maxrate=31250 / vbv_bufsize=31250 / nal_hrd=none / filler=0 / ip_ratio=1.40 / aq=3:1.00
Encoded date : UTC 2017-12-20 14:22:51
Tagged date : UTC 2017-12-20 14:22:51

Audio
ID : 2
Format : AAC
Format/Info : Advanced Audio Codec
Format profile : LC
Codec ID : 40
Duration : 2 h 18 min
Bit rate mode : Constant
Bit rate : 224 kb/s
Channel(s) : 2 channels
Channel(s)_Original : 6 channels
Channel positions : Front: L C R, Side: L R, LFE
Sampling rate : 48.0 kHz
Frame rate : 46.875 FPS (1024 spf)
Compression mode : Lossy
Stream size : 222 MiB (8%)
Language : English
Default : Yes
Alternate group : 1
Encoded date : UTC 2017-12-20 14:22:51
Tagged date : UTC 2017-12-20 14:22:51

Subtitulos

Grupo: AMIABLE
Versión: BDRip x264 720p REMASTERED AC3
Tamaño: 6.6 GB
The.Matrix.Reloaded.2003.REMASTERED.720p.BluRay.X264-AMIABLE

Date .....: 10/2018
Runtime ..: 02:18:17
Video ....: 1280x536 (23.976fps)
Audio ....: AC-3 5.1 640kbps
Lang .....: English
Subs .....: English / French / Spanish / Portuguese / Italian / German /
Dutch / Japanese
IMDB .....: https://www.imdb.com/title/tt0234215/
BOM ......:
Genre ....: Action , Sci-Fi

Notes ....: From a brand new 4K restoration.

Subtitulos

Grupo: AMIABLE
Versión: BDRip x264 1080p REMASTERED AC3
Tamaño: 12.1 GB
The.Matrix.Reloaded.2003.REMASTERED.1080p.BluRay.X264-AMIABLE

Date .....: 10/2018
Runtime ..: 02:18:17
Video ....: 1920x800 (23.976fps)
Audio ....: AC-3 5.1 640kbps
Lang .....: English
Subs .....: English / French / Spanish / Portuguese / Italian / German /
Dutch / Japanese
IMDB .....: https://www.imdb.com/title/tt0234215/
BOM ......:
Genre ....: Action , Sci-Fi

Notes ....: From a brand new 4K restoration.
Compares in 720p Proof dir.

Subtitulos

Grupo: IAMABLE
Versión: BDRip x265 2160p AC3 / Atmos
Tamaño: 33.9 GB
The.Matrix.Reloaded.2003.2160p.UHD.BluRay.X265-IAMABLE

Date .....: 10/2018
Runtime ..: 02:18:17
Video ....: 3840x1600 (23.976fps @ CRF 17)
Audio ....: TrueHD (Atmos) 7.1 / AC-3 5.1 640kbps / 2x AC-3 2.0 (Commentary)
Lang .....: English
Subs .....: English / French / Spanish / Portuguese / Italian / German / Dutch /
Nordic /  Russian / Czech / Polish / Hungarian / Romanian / Croatian / Greek /
Turkish / Arabic / Japanese / Chinese / Korean / Thai
IMDB .....: https://www.imdb.com/title/tt0234215/
BOM
Genre ....: Action , Sci-Fi

General note about UHD encodes:

Apparently some half-assed built-in TV players (confirmed for Samsung TVs),
do not like too many streams on the mkv.
If there are more than 20 elements (including video/audios/subs),
playback start glitching. If you have encountered issues, download mkvtoolnix,
load the mkv, uncheck the streams you have no need for, and make a new mkv.