67
PUNTOS
Calificar
CALIFICA
Calificar
Califica y/o escribe un comentario sobre la película.
Comentarios en el foroFORO

Hook (1991)

Peter Pan (Robin Williams) es un prestigioso abogado y tiene una encantadora familia, pero ha perdido el contacto con algo maravilloso: su infancia. Sin embargo, cuando sus hijos son secuestrados por su antiguo enemigo, el Capitán Garfio (Dustin Hoffman), y llevados al País de Nunca Jamás, también él tendrá que viajar a ese reino encantado, donde, con la ayuda de Campanilla (Julia Roberts), podrá recuperar no sólo a sus hijos, sino también al niño que un día fue.
Director Steven Spielberg
Actores Dustin Hoffman, Robin Williams, Julia Roberts, Bob Hoskins
Duración 142 min
Streaming (Servicio externo)
Grupo: RARBG
Versión: BDRip H.264 720p REMASTERED AAC
Tamaño: 1.7 GB
Hook.1991.REMASTERED.720p.BluRay.H264.AAC-RARBG

Video
ID : 1
Format : AVC
Format/Info : Advanced Video Codec
Format profile : [email protected]
Format settings : CABAC / 4 Ref Frames
Format settings, CABAC : Yes
Format settings, ReFrames : 4 frames
Codec ID : avc1
Codec ID/Info : Advanced Video Coding
Duration : 2 h 21 min
Bit rate : 1 500 kb/s
Width : 1 280 pixels
Height : 536 pixels
Display aspect ratio : 2.40:1
Original display aspect ratio : 2.40:1
Frame rate mode : Constant
Frame rate : 23.976 (23976/1000) FPS
Color space : YUV
Chroma subsampling : 4:2:0
Bit depth : 8 bits
Scan type : Progressive
Bits/(Pixel*Frame) : 0.091
Stream size : 1.48 GiB (87%)
Writing library : x264 core 152 r2851M ba24899
Encoding settings : cabac=1 / ref=4 / deblock=1:-1:-1 / analyse=0x3:0x113 / me=umh / subme=9 / psy=1 / psy_rd=1.00:0.15 / mixed_ref=1 / me_range=24 / chroma_me=1 / trellis=2 / 8x8dct=1 / cqm=0 / deadzone=21,11 / fast_pskip=1 / chroma_qp_offset=-3 / threads=32 / lookahead_threads=4 / sliced_threads=0 / nr=0 / decimate=1 / interlaced=0 / bluray_compat=0 / constrained_intra=0 / bframes=3 / b_pyramid=2 / b_adapt=2 / b_bias=0 / direct=3 / weightb=1 / open_gop=0 / weightp=2 / keyint=250 / keyint_min=25 / scenecut=40 / intra_refresh=0 / rc_lookahead=50 / rc=2pass / mbtree=1 / bitrate=1500 / ratetol=1.0 / qcomp=0.60 / qpmin=0 / qpmax=69 / qpstep=4 / cplxblur=20.0 / qblur=0.5 / vbv_maxrate=31250 / vbv_bufsize=31250 / nal_hrd=none / filler=0 / ip_ratio=1.40 / aq=3:1.00
Encoded date : UTC 2018-10-07 14:16:27
Tagged date : UTC 2018-10-07 14:16:27
Codec configuration box : avcC

Audio
ID : 2
Format : AAC LC
Format/Info : Advanced Audio Codec Low Complexity
Codec ID : mp4a-40-2
Duration : 2 h 21 min
Bit rate mode : Constant
Bit rate : 224 kb/s
Channel(s) : 6 channels
Channel layout : C L R Ls Rs LFE
Sampling rate : 48.0 kHz
Frame rate : 46.875 FPS (1024 SPF)
Compression mode : Lossy
Stream size : 227 MiB (13%)
Language : English
Default : Yes
Alternate group : 1
Encoded date : UTC 2018-10-07 14:16:27
Tagged date : UTC 2018-10-07 14:16:27

Subtitulos

Grupo: RARBG
Versión: BDRip H.264 1080p REMASTERED AAC
Tamaño: 2.7 GB
Hook.1991.REMASTERED.1080p.BluRay.H264.AAC-RARBG

Video
ID : 1
Format : AVC
Format/Info : Advanced Video Codec
Format profile : [email protected]
Format settings : CABAC / 4 Ref Frames
Format settings, CABAC : Yes
Format settings, ReFrames : 4 frames
Codec ID : avc1
Codec ID/Info : Advanced Video Coding
Duration : 2 h 21 min
Bit rate : 2 500 kb/s
Width : 1 920 pixels
Height : 802 pixels
Display aspect ratio : 2.40:1
Frame rate mode : Constant
Frame rate : 23.976 (23976/1000) FPS
Color space : YUV
Chroma subsampling : 4:2:0
Bit depth : 8 bits
Scan type : Progressive
Bits/(Pixel*Frame) : 0.068
Stream size : 2.47 GiB (92%)
Writing library : x264 core 152 r2851M ba24899
Encoding settings : cabac=1 / ref=4 / deblock=1:-1:-1 / analyse=0x3:0x113 / me=umh / subme=9 / psy=1 / psy_rd=1.00:0.15 / mixed_ref=1 / me_range=24 / chroma_me=1 / trellis=2 / 8x8dct=1 / cqm=0 / deadzone=21,11 / fast_pskip=1 / chroma_qp_offset=-3 / threads=32 / lookahead_threads=4 / sliced_threads=0 / nr=0 / decimate=1 / interlaced=0 / bluray_compat=0 / constrained_intra=0 / bframes=3 / b_pyramid=2 / b_adapt=2 / b_bias=0 / direct=3 / weightb=1 / open_gop=0 / weightp=2 / keyint=250 / keyint_min=25 / scenecut=40 / intra_refresh=0 / rc_lookahead=50 / rc=2pass / mbtree=1 / bitrate=2500 / ratetol=1.0 / qcomp=0.60 / qpmin=0 / qpmax=69 / qpstep=4 / cplxblur=20.0 / qblur=0.5 / vbv_maxrate=31250 / vbv_bufsize=31250 / nal_hrd=none / filler=0 / ip_ratio=1.40 / aq=3:1.00
Encoded date : UTC 2018-10-07 15:09:26
Tagged date : UTC 2018-10-07 15:09:26
Codec configuration box : avcC

Audio
ID : 2
Format : AAC LC
Format/Info : Advanced Audio Codec Low Complexity
Codec ID : mp4a-40-2
Duration : 2 h 21 min
Bit rate mode : Constant
Bit rate : 224 kb/s
Channel(s) : 6 channels
Channel layout : C L R Ls Rs LFE
Sampling rate : 48.0 kHz
Frame rate : 46.875 FPS (1024 SPF)
Compression mode : Lossy
Stream size : 227 MiB (8%)
Language : English
Default : Yes
Alternate group : 1
Encoded date : UTC 2018-10-07 15:09:26
Tagged date : UTC 2018-10-07 15:09:26

Subtitulos

Grupo: IAMABLE
Versión: BDRip x265 2160p AC3 / DTS-HD / Atmos
Tamaño: 45.0 GB
Hook.1991.2160p.UHD.BluRay.X265-IAMABLE

Date .....: 10/2018
Runtime ..: 02:21:46
Video ....: 3840x1606 (23.976fps @ CRF 17)
Audio ....: TrueHD (Atmos) 7.1 / AC-3 5.1 640kbps (core) / DTS-HD MA 5.1
Lang .....: English
Subs .....: English / French / Spanish / Portuguese / Italian / German / Dutch / Nordic /  Russian / Czech / Polish /
Hungarian / Romanian / Slovak / Slovenian / Greek / Turkish / Arabic / Japanese / Chinese / Korean / Thai / Hindi / Malay
sweetest downfall..             IMDB .....: https://www.imdb.com/title/tt0102057/
BOM
Genre ....:  Adventure , Comedy , Family

General note about UHD encodes:

Apparently some half-assed built-in TV players (confirmed for Samsung TVs),
do not like too many streams on the mkv.
If there are more than 20 elements (including video/audios/subs),
playback start glitching. If you have encountered issues, download mkvtoolnix,
load the mkv, uncheck the streams you have no need for, and make a new mkv.
Grupo: WAF
Versión: DVDRip XviD AC3
Tamaño: 2.1 GB
File Name .......: Hook.1991.DVDRip.AC3.XviD-WAF.CD1.avi
File Size .......: 700,29 MB

Duration ........: 00:48:19
Video Codec .....: XviD MPEG-4 codec
Video Bitrate ...: 1578 KB/s
Resolution ......: 800 x 336
Aspect Ratio ....: 2.38:1
Framerate .......: 23,976 FPS

Audio Codec .....: FAST Multimedia AG DVM (Dolby AC3)
Audio Bitrate ...: 448 KB/s (CBR)
Channels ........: 5 Ch

File Name .......: Hook.1991.DVDRip.AC3.XviD-WAF.CD2.avi
File Size .......: 700,10 MB

Duration ........: 00:44:49
Video Codec .....: XviD MPEG-4 codec
Video Bitrate ...: 1736 KB/s
Resolution ......: 800 x 336
Aspect Ratio ....: 2.38:1
Framerate .......: 23,976 FPS

Audio Codec .....: FAST Multimedia AG DVM (Dolby AC3)
Audio Bitrate ...: 448 KB/s (CBR)
Channels ........: 5 Ch

File Name .......: Hook.1991.DVDRip.AC3.XviD-WAF.CD3.avi
File Size .......: 700,39 MB

Duration ........: 00:48:38
Video Codec .....: XviD MPEG-4 codec
Video Bitrate ...: 1565 KB/s
Resolution ......: 800 x 336
Aspect Ratio ....: 2.38:1
Framerate .......: 23,976 FPS

Audio Codec .....: FAST Multimedia AG DVM (Dolby AC3)
Audio Bitrate ...: 448 KB/s (CBR)
Channels ........: 5 Ch
Trailer