65
PUNTOS
Calificar
CALIFICA
Calificar
Califica y/o escribe un comentario sobre la película.
Comentarios en el foroFORO

Contraband (2012)

Hace tiempo que Chris Farraday (Mark Wahlberg) dejó el mundo de la delincuencia, pero cuando su cuñado Andy (Caleb Landry Jones) mete la pata en un asunto de drogas encargado por su implacable jefe Tim Briggs (Giovanni Ribisi), Chris se ve obligado a volver a hacer lo que mejor se le da, pasar contrabando, para pagar la deuda de Andy. Chris es un legendario contrabandista y no tarda en reunir a un equipo de primera con la ayuda de su mejor amigo, Sebastian (Ben Foster), y realizar un último viaje a Panamá para traer millones de dólares en billetes falsos. Pero las cosas no salen como estaba previsto y con solo unas horas para hacerse con el dinero, Chris deberá hacer uso de sus oxidadas habilidades y superar una traicionera red criminal con brutales narcos, polis y sicarios, antes de que su esposa Kate (Kate Beckinsale) y sus hijos se conviertan en objetivos.
Director Baltasar Kormákur
Actores Mark Wahlberg, Giovanni Ribisi, Kate Beckinsale
Duración 109 min
País USA | UK | France
Streaming (Servicio externo)
Grupo: AMIABLE
Versión: DVDRip XviD AC3
Tamaño: 1.4 GB
Contraband.2012.DVDRip.XviD-AMIABLE

Date .....: 10th November 2011
Runtime ..: 01:49:38
Size .....: 700mb
Video ....: 640x272 (XviD @ 23.976fps)
Audio ....: AC3 448k
Source ...: Retail DVD
Lang .....: English 
Subs .....: English / French / Spanish  
IMDB .....: http://www.imdb.com/title/tt1524137/
Rating ...: 6.6/10   9,693 votes
Screens ..: Opening Week - $24,349,815 (USA) (15 January 2012) (2,863 Screens)
Genre ....: Action | Crime | Drama | Thriller 

Subtitulos

Grupo: AMIABLE
Versión: BDRip x264 720p DTS
Tamaño: 4.4 GB
Contraband.2012.720p.BluRay.X264-AMIABLE

Date .....: 10th November 2011
Runtime ..: 01:49:38
Size .....: 4480mb
Video ....: 1280x544 (X264 @ 23.976fps)
Audio ....: DTS 1509k
Source ...: Retail Blu-Ray
Lang .....: English 
Subs .....: English / French / Spanish  
IMDB .....: http://www.imdb.com/title/tt1524137/
Rating ...: 6.6/10   9,693 votes
Screens ..: Opening Week - $24,349,815 (USA) (15 January 2012) (2,863 Screens)
Genre ....: Action | Crime | Drama | Thriller 

Subtitulos

Grupo: AMIABLE
Versión: BDRip x264 1080p DTS
Tamaño: 7.6 GB
Contraband.2012.1080p.BluRay.X264-AMIABLE
        
Date .....: 11th November 2011
Runtime ..: 01:49:38
Size .....: 7840mb
Video ....: 1920x816 (X264 @ 23.976fps)
Audio ....: DTS 1509k
Source ...: Retail Blu-Ray
Lang .....: English 
Subs .....: English / French / Spanish  
IMDB .....: http://www.imdb.com/title/tt1524137/
Rating ...: 6.6/10   10,149 votes
Screens ..: Opening Week - $24,349,815 (USA) (15 January 2012) (2,863 Screens)
Genre ....: Action | Crime | Drama | Thriller 

Subtitulos

Grupo: ZOMBiES
Versión: Cam XviD
Tamaño: 850 MB
    Video
    ID : 0
    Format : MPEG-4 Visual
    Format profile : Advanced [email protected]
    Format settings, BVOP : 2
    Format settings, QPel : No
    Format settings, GMC : No warppoints
    Format settings, Matrix : Default (H.263)
    Muxing mode : Packed bitstream
    Codec ID : XVID
    Codec ID/Hint : XviD
    Duration : 1h 43mn
    Bit rate : 1 028 Kbps
    Width : 720 pixels
    Height : 304 pixels
    Display aspect ratio : 2.35:1
    Frame rate : 25.000 fps
    Color space : YUV
    Chroma subsampling : 4:2:0
    Bit depth : 8 bits
    Scan type : Progressive
    Compression mode : Lossy
    Bits/(Pixel*Frame) : 0.188
    Stream size : 759 MiB (88%)
    Writing library : XviD 64

    Audio
    ID : 1
    Format : AC-3
    Format/Info : Audio Coding 3
    Mode extension : CM (complete main)
    Codec ID : 2000
    Duration : 1h 43mn
    Bit rate mode : Constant
    Bit rate : 128 Kbps
    Channel(s) : 2 channels
    Channel positions : Front: L R
    Sampling rate : 44.1 KHz
    Bit depth : 16 bits
    Compression mode : Lossy
    Stream size : 94.3 MiB (11%)
    Alignment : Aligned on interleaves
    Interleave, duration : 40 ms (1.00 video frame)
    Interleave, preload duration : 522 ms
Grupo: NoGRP
Versión: NTSC AC3 AudioLatino
Tamaño: 500 MB