65
PUNTOS
Calificar
CALIFICA
Calificar
Califica y/o escribe un comentario sobre la película.
Comentarios en el foroFORO

Salt (2010)

Un agente de la CIA es culpado de ser un espía ruso. Dicho espía -cuyo nombre da título a esta cinta- tendrá que eludir su captura a toda costa con el objetivo de reunirse con su familia y probar su inocencia, para lo que tendrá que buscar al verdadero espía antes de que asesine al presidente.
Director Phillip Noyce
Actores Angelina Jolie, Liev Schreiber, Chiwetel Ejiofor
Duración 100 min
País USA
Streaming (Servicio externo)
Grupo: VAMPS
Versión: DVDRip XviD UNRATED DC AC3
Tamaño: 1.4 GB
Notes: retail dvd source proof added (menu)

Duration                         : 1h 44mn
Overall bit rate                 : 1 481 Kbps

Video
ID                               : 0
Format                           : MPEG-4 Visual
Format profile                   : Advanced [email protected]
Format settings, BVOP            : Yes
Format settings, QPel            : No
Format settings, GMC             : No warppoints
Format settings, Matrix          : Default (H.263)
Codec ID                         : XVID
Codec ID/Hint                    : XviD
Duration                         : 1h 44mn
Bit rate                         : 1 423 Kbps
Width                            : 640 pixels
Height                           : 272 pixels
Display aspect ratio             : 2.35:1
Frame rate                       : 23.976 fps
Color space                      : YUV
Chroma subsampling               : 4:2:0
Bit depth                        : 8 bits
Scan type                        : Progressive
Bits/(Pixel*Frame)               : 0.341
Stream size                      : 1.03 GiB (76%)
Writing library                  : XviD 1.2.1

Audio
ID                               : 1
Format                           : AC-3
Format/Info                      : Audio Coding 3
Mode extension                   : CM (complete main)
Codec ID                         : 2000
Duration                         : 1h 44mn
Bit rate mode                    : Constant
Bit rate                         : 448 Kbps
Channel(s)                       : 6 channels
Channel positions                : Front: L C R, Side: L R, LFE
Sampling rate                    : 48.0 KHz
Bit depth                        : 16 bits
Stream size                      : 333 MiB (24%)
Alignment                        : Split accross interleaves
Interleave, duration             : 42 ms (1.00 video frame)
Interleave, preload duration     : 500 ms

Subtitles
ID                               : 2
Language                         : English

Subtitulos

Grupo: xXx
Versión: BDRip x264 720p DTS
Tamaño: 6.5 GB
RUNTIME........: 1:44:00
SIZE...........: 6,54 GB
VIDEO.CODEC....: x264
FRAMERATE......: 23.976
BITRATE........: 7308 kbps
RESOLUTION.....: 1280x534
AUDIO..........: English DTS 5.1 1,5 mbit (DTS core from DTS-HD)

Subtitulos

Grupo: CaLLiOpeD
Versión: BDRip XviD AC3 UNRATED DC
Tamaño: 2.2 GB
Source : Bluray                                    
Encoding Type: Two Pass - HQ - BVOP - No QPel - No GMC   
Video : 720x304, 2537 Kbps, XviD                  
Bits Per Pixel : 0,483                                     
Frame Rate : 23.976 FPS                                
Audio 1 : 448 Kbps 6 Ch Dolby DSS AC3 English

Subtitulos

Grupo: LAP
Versión: R5 XviD LINE
Tamaño: 700 MB
2010-08-18 699.61MB 1h 35m 54s
XviD 846kbps 640x272 AR2.35 25.00FPS
MPEG Layer 3 161kbps 48000Hz Stereo

Subtitulos

Grupo: HDChina
Versión: BDRip x264 720p DTS UNRATED DC
Tamaño: 8.7 GB
GENRE...............: Action | Mystery | Thriller             
RATiNG..............: 6.5/10 (33,543 votes)                   
iMDB URL............: http://www.imdb.com/title/tt0944835/    
SOURCE TYPE.........: 1080p Blu-ray AVC DTS-HD MA             
ViDEO CODEC.........: x264 L4.1 High 2pass @ 10524 kbps       
AUDiO CODEC.........: English DTS @ 1510 Kbps                 
FRAMERATE...........: 23.976 FPS                              
RUNTiME.............: 104mins                                 
RESOLUTiON..........: 1920*800                                
SUBTiTLES...........: None                                    
FiLE SiZE...........: 8.74 GB                                 
ENCODED BY..........: [email protected]                             
Grupo: IAMABLE
Versión: BDRip x265 2160p AC3 / Atmos
Tamaño: 22.9 GB
Salt.2010.2160p.UHD.BluRay.X265-IAMABLE

Date .....: 12/2017
Runtime ..: 01:40:00
Video ....: 3840x1608 (23.976fps @ CRF 17)
Audio ....: TrueHD (Atmos) 7.1 / AC-3 5.1 640kbps (Atmos core)  / Audio Commentary
Lang .....: English
Subs .....: English / French / Spanish
IMDB .....: http://www.imdb.com/title/tt0944835/
BOM
Rating ...: 6.4/10   262,047 votes
Genre ....: Action | Crime | Mystery | Thriller