75
PUNTOS
Calificar
CALIFICA
Calificar
Califica y/o escribe un comentario sobre la película.
Comentarios en el foroFORO

Revolutionary Road (2008)

En los años cincuenta, Frank (Leonardo DiCaprio) y April (Kate Winslet) son una joven pareja que vive en los suburbios de Connecticut. Su vida, aparentemente feliz para muchos otros, tras casarse y tener dos hijos, se encuentran ante la disyuntiva de luchar por sus verdaderos deseos o conformarse con su estado actual, una vida donde ambos se sienten mediocres, del montón, precisamente ellos que siempre se vieron a sí mismos como especiales, diferentes, preparados para alcanzar los sueños y lograr altos ideales.
Director Sam Mendes
Actores Leonardo DiCaprio, Kate Winslet, Christopher Fitzgerald
Duración 119 min
País USA | UK
Streaming (Servicio externo)
Grupo: ORC
Versión: DVDScr XviD AC3
Tamaño: 1.4 GB
Source: DVDScr
Size: 1.38 GB
Genre: Drama | Romance
Video: XviD - 672×272 - 1192 kbps
Audio: English - 5.1 AC3
Subtitles: None
Runtime: 1hr59mins

Subtitulos

Grupo: NeDiVx
Versión: DVDRip XviD
Tamaño: 700 MB
               ? ?  Revolutionary Road (2008)            ? ?                   ?
               ? ?  http://www.imdb.com/title/tt0959337/ ? ?                   
               ? ?  114m06s                              ? ?                   
               ? ?  608x256                              ? ?                   
               ? ?  699 kbps                     ??      ? ?                   
               ? ?  English MP3 146 kbps vbr     ???     ? ?    

Subtitulos

Grupo: REFiNED
Versión: BDRip x264 720p AC3
Tamaño: 4.4 GB
ViDEO ......: 1280 544 4607 kbps
AUDiO ......: 640 kbps AC3
RUNTiME ....: 119m15s
SiZE .......: 4479mb
SUBTiTLES ..: English 

Subtitulos

Grupo: FLAWL3SS
Versión: DVDScr XviD AC3
Tamaño: 1.4 GB
GENERAL:
Complete name                    : revolutionary.road.2008.dvdscr.xvid.ac3.flawl3ss.avi
Format                           : AVI
Format/Info                      : Audio Video Interleave
File size                        : 1.43 GiB
Duration                         : 1h 58mn
Overall bit rate                 : 1 725 Kbps
Writing application              : VirtualDubMod 1.5.10.2 (build 2542/release)
Writing library                  : VirtualDubMod build 2542/release

VIDEO:
Format                           : MPEG-4 Visual
Format profile                   : Streaming [email protected]
Format settings, BVOP            : Yes
Format settings, QPel            : No
Format settings, GMC             : No warppoints
Format settings, Matrix          : Custom
Codec ID                         : XVID
Codec ID/Hint                    : XviD
Duration                         : 1h 58mn
Bit rate                         : 1 268 Kbps
Width                            : 720 pixels
Height                           : 304 pixels
Display aspect ratio             : 2.35
Frame rate                       : 23.976 fps
Resolution                       : 24 bits
Colorimetry                      : 4:2:0
Scan type                        : Progressive
Bits/(Pixel*Frame)               : 0.242
Stream size                      : 1.05 GiB (73%)
Writing library                  : XviD 50

AUDIO: ENGLISH OV ONLY
Format                           : AC-3
Format/Info                      : Audio Coding 3
Codec ID                         : 2000
Duration                         : 1h 58mn
Bit rate mode                    : Constant
Bit rate                         : 448 Kbps
Channel(s)                       : 6 channels
Channel positions                : Front: L C R, Surround: L R, LFE
Sampling rate                    : 48.0 KHz
Stream size                      : 381 MiB (26%)
Alignment                        : Split accross interleaves
Interleave, duration             : 42 ms (1.00 video frame)
Interleave, preload duration     : 500 ms

Subtitulos

Grupo: DEViSE
Versión: DVDRip XviD AC3
Tamaño: 1.4 GB
Audio Bitrate.: 448 kbps
Audio Codec.: AC3

Video Bitrate.: 2091 kbps
Video Codec.: XviD

Runtime…….: 01:54:05
Resolution..: 720×304
Language……: English
Subtitles…: Eng, It

Subtitulos

Grupo: LTRG
Versión: DVDRip XviD AC3
Tamaño: 1.4 GB
²³                        Release Details.....                        ³±
²³                                                                    ³±
²³²³²³²³²³²³²³²³²³²³²³²³²³²³²³²³²³²³²³²³²³²³²³²³²³²³²³²³²³²³²³²³²³²³²³³±
²³²³²³²³²²²² Revolutionary.Road.2008.DVDRip.AC3.XviD-LTRG ²²²²²²³²³²³²³±
²³²³²³²³²³²³²³²³²³²³²³²³²³²³²³²³²³²³²³²³²³²³²³²³²³²³²³²³²³²³²³²³²³²³²³³±
 ²³      Video.............:   XviD @ 1289 kbps                      ³±
  ²³     Resolution........:   720 x 304                            ³± 
 ²³      Bits per Pixel....:   0.235 bpp                             ³±
²³       FPS...............:   25.000 Frame/S                         ³±
 ²³      SA................:   B VOP,No Qpel,No GMC                  ³±
  ²³     Runtime...........:   01:54:05                             ³± 
 ²³      Release Date......:   07.05.2009                            ³±
²³       Size..............:   1.39 GB                                ³±
 ²³      IMDB..............:   http://www.imdb.com/title/tt0959337/  ³±
  ²³     Audio Language....:   English                              ³± 
 ²³      Audio 1...........:   448 kb/s 6 chnls AC3                  ³±
²³       Audio 2...........:   -                                      ³±
 ²³                                                                  ³±
ÉÊÍÍÍÍÍÍÍÍÍÍÍÍÍÍÍÍÍÍÍÍÍÍÍÍÍÍÍÍÍÍÍÍÍÍÍÍÍÍÍÍÍÍÍÍÍÍÍÍÍÍÍÍÍÍÍÍÍÍÍÍÍÍÍÍÍÍÍÍÊ»

Subtitulos