59
PUNTOS
Calificar
CALIFICA
Calificar
Califica y/o escribe un comentario sobre la pelĂ­cula.
Comentarios en el foroFORO

The Good Neighbour (2019)

The Good Neighbour is a movie starring Nathalie Cox, Rupert Frazer, and Fiona Hampton. Jodie wrestles with her multiple sclerosis diagnosis as she struggles to keep her farm afloat. Her life takes a dramatic turn when a stranger...
Director Jonathan Reid-Edwards
Actores Nathalie Cox, Rupert Frazer, Fiona Hampton, Lizzie Aaryn-Stanton
Duración 113 min
Streaming (Servicio externo)
Grupo: PTP
Versión: WEB-DL H264 1080p
Tamaño: 8.0 GB
Video
ID : 1
Format : AVC
Format/Info : Advanced Video Codec
Format profile : [email protected]
Format settings : CABAC / 4 Ref Frames
Format settings, CABAC : Yes
Format settings, Reference frames : 4 frames
Codec ID : V_MPEG4/ISO/AVC
Duration : 1 h 53 min
Bit rate mode : Constant
Bit rate : 9 355 kb/s
Nominal bit rate : 10 000 kb/s
Width : 1 920 pixels
Height : 960 pixels
Display aspect ratio : 2.000
Frame rate mode : Constant
Frame rate : 23.976 (24000/1001) FPS
Color space : YUV
Chroma subsampling : 4:2:0
Bit depth : 8 bits
Scan type : Progressive
Bits/(Pixel*Frame) : 0.212
Stream size : 7.44 GiB (94%)
Default : Yes
Forced : No
Color range : Limited
Color primaries : BT.709
Transfer characteristics : BT.709
Matrix coefficients : BT.709

Audio
ID : 2
Format : E-AC-3
Format/Info : Enhanced AC-3
Commercial name : Dolby Digital Plus
Codec ID : A_EAC3
Duration : 1 h 53 min
Bit rate mode : Constant
Bit rate : 640 kb/s
Channel(s) : 6 channels
Channel layout : L R C LFE Ls Rs
Sampling rate : 48.0 kHz
Frame rate : 31.250 FPS (1536 SPF)
Compression mode : Lossy
Stream size : 521 MiB (6%)
Language : English
Service kind : Complete Main
Default : Yes
Forced : No

Text
ID : 3
Format : UTF-8
Codec ID : S_TEXT/UTF8
Codec ID/Info : UTF-8 Plain Text
Duration : 1 h 50 min
Bit rate : 36 b/s
Count of elements : 1233
Stream size : 29.8 KiB (0%)
Language : English
Default : No
Forced : No
Trailer