75
PUNTOS
Calificar
CALIFICA
Calificar
Califica y/o escribe un comentario sobre la película.
Comentarios en el foroFORO

Une colonie (2019)

A punto de comenzar su primer año de instituto, todo son dudas y preocupaciones para Mylia. Su hermana pequeña le hace la vida imposible ante la inminencia de quedarse sola. Debatiéndose todavía entre niñez y adolescencia, pronto deberá tomar sus primeras decisiones... y sus primeras copas, bailes, novios y amigas, con sus primeras resacas, desilusiones y disgustos. De fondo, la vida en una pequeña ciudad canadiense, la presencia de los nativos abenaki, la Historia de una colonia llena de paradojas y contradicciones, cuyas sombras se reflejan también en las vidas de sus habitantes.
Director Geneviève Dulude-De Celles
Actores Robin Aubert, Emilie Bierre, Madeleine Blais-Tremblay, Colin Blanchard
Duración 102 min
Streaming (Servicio externo)
Grupo: PREUMS
Versión: WEB x264 720p
Tamaño: 1.4 GB
General
Unique ID                                : 335259387697768090439787929858713234956 (0xFC389C010278CCBBD99B888FE142AE0C)
Complete name                            : Une.Colonie.2019.FRENCH.720p.WEB.x264-PREUMS.mkv
Format                                   : Matroska
Format version                           : Version 4
File size                                : 1.37 GiB
Duration                                 : 1 h 42 min
Overall bit rate                         : 1 906 kb/s
Encoded date                             : UTC 2020-10-12 11:01:40
Writing application                      : mkvmerge v51.0.0 ('I Wish') 64-bit
Writing library                          : libebml v1.4.0 + libmatroska v1.6.2

Video
ID                                       : 1
Format                                   : AVC
Format/Info                              : Advanced Video Codec
Format profile                           : [email protected]
Format settings                          : 2 Ref Frames
Format settings, CABAC                   : No
Format settings, Reference frames        : 2 frames
Codec ID                                 : V_MPEG4/ISO/AVC
Duration                                 : 1 h 42 min
Bit rate                                 : 1 521 kb/s
Width                                    : 1 280 pixels
Height                                   : 720 pixels
Display aspect ratio                     : 16:9
Frame rate mode                          : Constant
Frame rate                               : 24.000 FPS
Color space                              : YUV
Chroma subsampling                       : 4:2:0
Bit depth                                : 8 bits
Scan type                                : Progressive
Bits/(Pixel*Frame)                       : 0.069
Stream size                              : 1.09 GiB (80%)
Language                                 : French
Default                                  : Yes
Forced                                   : No

Audio
ID                                       : 2
Format                                   : AC-3
Format/Info                              : Audio Coding 3
Commercial name                          : Dolby Digital
Codec ID                                 : A_AC3
Duration                                 : 1 h 42 min
Bit rate mode                            : Constant
Bit rate                                 : 384 kb/s
Channel(s)                               : 6 channels
Channel layout                           : L R C LFE Ls Rs
Sampling rate                            : 48.0 kHz
Frame rate                               : 31.250 FPS (1536 SPF)
Compression mode                         : Lossy
Delay relative to video                  : -42 ms
Stream size                              : 282 MiB (20%)
Language                                 : French
Service kind                             : Complete Main
Default                                  : Yes
Forced                                   : No

Menu
00:00:00.000                             : en:Chapitre 1
00:09:04.666                             : en:Chapitre 2
00:17:26.707                             : en:Chapitre 3
00:29:02.122                             : en:Chapitre 4
00:37:11.372                             : en:Chapitre 5
00:46:46.538                             : en:Chapitre 6
00:55:50.496                             : en:Chapitre 7
01:04:10.662                             : en:Chapitre 8
01:12:47.078                             : en:Chapitre 9
01:24:22.869                             : en:Chapitre 10
01:39:46.035                             : en:Chapitre 11

Subtitulos

Grupo: PREUMS
Versión: WEB x264 1080p
Tamaño: 4.0 GB
General
Unique ID                                : 260920156820544158766563690452450511892 (0xC44B64F19909C252BEEA7E25618F8C14)
Complete name                            : Une.Colonie.2019.FRENCH.1080p.WEB.x264-PREUMS.mkv
Format                                   : Matroska
Format version                           : Version 4
File size                                : 3.98 GiB
Duration                                 : 1 h 42 min
Overall bit rate                         : 5 541 kb/s
Encoded date                             : UTC 2020-10-12 11:01:24
Writing application                      : mkvmerge v51.0.0 ('I Wish') 64-bit
Writing library                          : libebml v1.4.0 + libmatroska v1.6.2

Video
ID                                       : 1
Format                                   : AVC
Format/Info                              : Advanced Video Codec
Format profile                           : [email protected]
Format settings                          : CABAC / 4 Ref Frames
Format settings, CABAC                   : Yes
Format settings, Reference frames        : 4 frames
Codec ID                                 : V_MPEG4/ISO/AVC
Duration                                 : 1 h 42 min
Bit rate                                 : 5 155 kb/s
Width                                    : 1 920 pixels
Height                                   : 1 080 pixels
Display aspect ratio                     : 16:9
Frame rate mode                          : Constant
Frame rate                               : 24.000 FPS
Color space                              : YUV
Chroma subsampling                       : 4:2:0
Bit depth                                : 8 bits
Scan type                                : Progressive
Bits/(Pixel*Frame)                       : 0.104
Stream size                              : 3.70 GiB (93%)
Language                                 : French
Default                                  : Yes
Forced                                   : No
Color range                              : Limited
Color primaries                          : BT.709
Transfer characteristics                 : BT.709
Matrix coefficients                      : BT.709

Audio
ID                                       : 2
Format                                   : AC-3
Format/Info                              : Audio Coding 3
Commercial name                          : Dolby Digital
Codec ID                                 : A_AC3
Duration                                 : 1 h 42 min
Bit rate mode                            : Constant
Bit rate                                 : 384 kb/s
Channel(s)                               : 6 channels
Channel layout                           : L R C LFE Ls Rs
Sampling rate                            : 48.0 kHz
Frame rate                               : 31.250 FPS (1536 SPF)
Compression mode                         : Lossy
Delay relative to video                  : -42 ms
Stream size                              : 282 MiB (7%)
Language                                 : French
Service kind                             : Complete Main
Default                                  : Yes
Forced                                   : No

Menu
00:00:00.000                             : en:Chapitre 1
00:09:04.666                             : en:Chapitre 2
00:17:26.707                             : en:Chapitre 3
00:29:02.122                             : en:Chapitre 4
00:37:11.372                             : en:Chapitre 5
00:46:46.538                             : en:Chapitre 6
00:55:50.496                             : en:Chapitre 7
01:04:10.662                             : en:Chapitre 8
01:12:47.078                             : en:Chapitre 9
01:24:22.869                             : en:Chapitre 10
01:39:46.035                             : en:Chapitre 11

Subtitulos

Trailer