69
PUNTOS
Calificar
CALIFICA
Calificar
Califica y/o escribe un comentario sobre la película.
Comentarios en el foroFORO

News of the World (2020)

Cinco años después del fin de la Guerra Civil estadounidense, el capitán Jefferson Kyle Kidd (Tom Hanks), veterano de tres guerras, viaja de ciudad en ciudad narrando noticias, hablando de presidentes y reinas, de luchas gloriosas, devastadoras catástrofes y apasionantes aventuras que tienen lugar en cualquier rincón del mundo. Un día, en las llanuras de Texas, el capitán conoce a Johanna, una niña de diez años secuestrada seis años atrás por la tribu Kiowa, y que durante ese tiempo fue educada como uno de ellos. Johanna, en contra de su voluntad, debe irse a vivir a casa de sus tíos, un lugar hostil y desconocido para ella. El capitán Kidd acepta entregar a la niña a sus tutores legales. En el viaje, ambos recorrerán cientos de kilómetros a través de una inhóspita naturaleza, y deberán enfrentarse a enormes dificultades, humanas y naturales, en búsqueda de un lugar al que puedan llamar “hogar”.
Director Paul Greengrass
Actores Tom Hanks, Helena Zengel, Tom Astor, Travis Johnson
Duración 118 min
Streaming (Servicio externo)
Grupo: SWTYBLZ
Versión: WebRip x264 720p
Tamaño: 3.5 GB
Video
ID : 1
Format : AVC
Format/Info : Advanced Video Codec
Format profile : [email protected]
Format settings : CABAC / 4 Ref Frames
Format settings, CABAC : Yes
Format settings, Reference frames : 4 frames
Codec ID : V_MPEG4/ISO/AVC
Duration : 1 h 58 min
Bit rate mode : Constant
Bit rate : 3 566 kb/s
Nominal bit rate : 6 000 kb/s
Width : 1 248 pixels
Height : 520 pixels
Display aspect ratio : 2.40:1
Frame rate mode : Constant
Frame rate : 23.976 (24000/1001) FPS
Color space : YUV
Chroma subsampling : 4:2:0
Bit depth : 8 bits
Scan type : Progressive
Bits/(Pixel*Frame) : 0.229
Stream size : 2.95 GiB (85%)
Default : Yes
Forced : No
Color range : Limited
Color primaries : BT.709
Transfer characteristics : BT.709
Matrix coefficients : BT.709

Audio
ID : 2
Format : E-AC-3
Format/Info : Enhanced AC-3
Commercial name : Dolby Digital Plus
Codec ID : A_EAC3
Duration : 1 h 58 min
Bit rate mode : Constant
Bit rate : 640 kb/s
Channel(s) : 6 channels
Channel layout : L R C LFE Ls Rs
Sampling rate : 48.0 kHz
Frame rate : 31.250 FPS (1536 SPF)
Compression mode : Lossy
Stream size : 542 MiB (15%)
Title : DDP 5.1
Language : English
Service kind : Complete Main
Default : Yes
Forced : No

Text #1
ID : 3
Format : UTF-8
Codec ID : S_TEXT/UTF8
Codec ID/Info : UTF-8 Plain Text
Duration : 1 h 50 min
Bit rate : 31 b/s
Count of elements : 1010
Stream size : 25.9 KiB (0%)
Language : English
Default : No
Forced : No

Text #2
ID : 4
Format : UTF-8
Codec ID : S_TEXT/UTF8
Codec ID/Info : UTF-8 Plain Text
Duration : 1 h 58 min
Bit rate : 38 b/s
Count of elements : 1358
Stream size : 33.4 KiB (0%)
Title : SDH
Language : English
Default : No
Forced : No

Menu
00:00:00.000 : en:Studio Logo
00:00:30.000 : en:Scene 2
00:03:41.000 : en:Scene 3
00:09:58.000 : en:Scene 4
00:15:37.000 : en:Scene 5
00:19:51.000 : en:Scene 6
00:23:00.000 : en:Scene 7
00:30:30.000 : en:Scene 8
00:35:48.000 : en:Scene 9
00:42:04.000 : en:Scene 10
00:51:10.000 : en:Scene 11
00:58:46.000 : en:Scene 12
01:01:41.000 : en:Scene 13
01:09:53.000 : en:Scene 14
01:12:20.000 : en:Scene 15
01:16:41.000 : en:Scene 16
01:23:03.000 : en:Scene 17
01:25:51.000 : en:Scene 18
01:28:19.000 : en:Scene 19
01:31:39.000 : en:Scene 20
01:33:42.000 : en:Scene 21
01:37:24.000 : en:Scene 22
01:51:00.000 : en:Scene 23
01:53:36.000 : en:End Credits

Subtitulos

Grupo: SWTYBLZ
Versión: WebRip x264 1080p
Tamaño: 7.2 GB
Video
ID : 1
Format : AVC
Format/Info : Advanced Video Codec
Format profile : [email protected]
Format settings : CABAC / 4 Ref Frames
Format settings, CABAC : Yes
Format settings, Reference frames : 4 frames
Codec ID : V_MPEG4/ISO/AVC
Duration : 1 h 58 min
Bit rate mode : Constant
Bit rate : 8 118 kb/s
Nominal bit rate : 10 000 kb/s
Width : 1 920 pixels
Height : 800 pixels
Display aspect ratio : 2.40:1
Frame rate mode : Constant
Frame rate : 23.976 (24000/1001) FPS
Color space : YUV
Chroma subsampling : 4:2:0
Bit depth : 8 bits
Scan type : Progressive
Bits/(Pixel*Frame) : 0.220
Stream size : 6.71 GiB (93%)
Default : Yes
Forced : No
Color range : Limited
Color primaries : BT.709
Transfer characteristics : BT.709
Matrix coefficients : BT.709

Audio
ID : 2
Format : E-AC-3
Format/Info : Enhanced AC-3
Commercial name : Dolby Digital Plus
Codec ID : A_EAC3
Duration : 1 h 58 min
Bit rate mode : Constant
Bit rate : 640 kb/s
Channel(s) : 6 channels
Channel layout : L R C LFE Ls Rs
Sampling rate : 48.0 kHz
Frame rate : 31.250 FPS (1536 SPF)
Compression mode : Lossy
Stream size : 542 MiB (7%)
Title : DDP 5.1
Language : English
Service kind : Complete Main
Default : Yes
Forced : No

Text #1
ID : 3
Format : UTF-8
Codec ID : S_TEXT/UTF8
Codec ID/Info : UTF-8 Plain Text
Duration : 1 h 50 min
Bit rate : 31 b/s
Count of elements : 1010
Stream size : 25.9 KiB (0%)
Language : English
Default : No
Forced : No

Text #2
ID : 4
Format : UTF-8
Codec ID : S_TEXT/UTF8
Codec ID/Info : UTF-8 Plain Text
Duration : 1 h 58 min
Bit rate : 38 b/s
Count of elements : 1358
Stream size : 33.4 KiB (0%)
Title : SDH
Language : English
Default : No
Forced : No

Menu
00:00:00.000 : en:Studio Logo
00:00:30.000 : en:Scene 2
00:03:41.000 : en:Scene 3
00:09:58.000 : en:Scene 4
00:15:37.000 : en:Scene 5
00:19:51.000 : en:Scene 6
00:23:00.000 : en:Scene 7
00:30:30.000 : en:Scene 8
00:35:48.000 : en:Scene 9
00:42:04.000 : en:Scene 10
00:51:10.000 : en:Scene 11
00:58:46.000 : en:Scene 12
01:01:41.000 : en:Scene 13
01:09:53.000 : en:Scene 14
01:12:20.000 : en:Scene 15
01:16:41.000 : en:Scene 16
01:23:03.000 : en:Scene 17
01:25:51.000 : en:Scene 18
01:28:19.000 : en:Scene 19
01:31:39.000 : en:Scene 20
01:33:42.000 : en:Scene 21
01:37:24.000 : en:Scene 22
01:51:00.000 : en:Scene 23
01:53:36.000 : en:End Credits

Subtitulos

Grupo: SWTYBLZ
Versión: WEB-DL x265 2160p
Tamaño: 8.0 GB
Video
ID : 1
Format : HEVC
Format/Info : High Efficiency Video Coding
Format profile : [email protected]@Main
Codec ID : V_MPEGH/ISO/HEVC
Duration : 1 h 58 min
Bit rate : 9 107 kb/s
Width : 3 840 pixels
Height : 1 600 pixels
Display aspect ratio : 2.40:1
Frame rate mode : Constant
Frame rate : 23.976 (24000/1001) FPS
Standard : NTSC
Color space : YUV
Chroma subsampling : 4:2:0
Bit depth : 8 bits
Bits/(Pixel*Frame) : 0.062
Stream size : 7.53 GiB (93%)
Writing library : x265 2.9_elemental+1-9e0607aa5b6f:[Linux][GCC 4.8.5][64 bit] 8bit+10bit+12bit
Encoding settings : cpuid=1111039 / frame-threads=2 / wpp / no-pmode / no-pme / psnr / ssim / log-level=2 / csv / csv-log-level=2 / input-csp=1 / input-res=3840x1600 / interlace=0 / total-frames=0 / level-idc=50 / high-tier=1 / uhd-bd=0 / ref=5 / no-allow-non-conformance / no-repeat-headers / annexb / no-aud / no-hrd / info / hash=0 / no-temporal-layers / no-open-gop / min-keyint=61 / keyint=120 / gop-lookahead=0 / bframes=8 / b-adapt=2 / b-pyramid / bframe-bias=0 / rc-lookahead=120 / lookahead-slices=4 / scenecut=0 / radl=0 / no-intra-refresh / ctu=64 / min-cu-size=8 / rect / amp / max-tu-size=32 / tu-inter-depth=4 / tu-intra-depth=4 / limit-tu=4 / rdoq-level=2 / dynamic-rd=0.00 / no-ssim-rd / signhide / tskip / nr-intra=100 / nr-inter=600 / no-constrained-intra / strong-intra-smoothing / max-merge=3 / limit-refs=3 / limit-modes / me=3 / subme=3 / merange=57 / temporal-mvp / weightp / weightb / no-analyze-src-pics / deblock=0:0 / no-sao / no-sao-non-deblock / rd=4 / no-early-skip / no-rskip / no-fast-intra / tskip-fast / no-cu-lossless / b-intra / no-splitrd-skip / rdpenalty=0 / psy-rd=4.00 / psy-rdoq=10.00 / no-rd-refine / no-lossless / cbqpoffs=0 / crqpoffs=0 / rc=crf / crf=25.0 / qcomp=0.60 / qpstep=1 / stats-write=0 / stats-read=0 / vbv-maxrate=15000 / vbv-bufsize=20000 / vbv-init=0.9 / crf-max=0.0 / crf-min=0.0 / ipratio=1.10 / pbratio=1.00 / aq-mode=0 / aq-strength=1.50 / no-cutree / zone-count=0 / no-strict-cbr / qg-size=32 / rc-grain / qpmax=69 / qpmin=0 / const-vbv / sar=1 / overscan=0 / videoformat=2 / range=0 / colorprim=1 / transfer=1 / colormatrix=1 / chromaloc=0 / display-window=0 / max-cll=0,0 / min-luma=0 / max-luma=255 / log2-max-poc-lsb=8 / vui-timing-info / vui-hrd-info / slices=1 / opt-qp-pps / no-opt-ref-list-length-pps / no-multi-pass-opt-rps / scenecut-bias=0.05 / no-opt-cu-delta-qp / no-aq-motion / no-hdr / no-hdr-opt / no-dhdr10-opt / no-idr-recovery-sei / analysis-reuse-level=5 / scale-factor=0 / refine-intra=0 / refine-inter=0 / refine-mv=0 / no-limit-sao / ctu-info=0 / no-lowpass-dct / refine-mv-type=0 / copy-pic=1 / max-ausize-factor=1.0 / no-dynamic-refine / no-single-sei
Default : Yes
Forced : No
Color range : Limited
Color primaries : BT.709
Transfer characteristics : BT.709
Matrix coefficients : BT.709

Audio
ID : 2
Format : E-AC-3
Format/Info : Enhanced AC-3
Commercial name : Dolby Digital Plus
Codec ID : A_EAC3
Duration : 1 h 58 min
Bit rate mode : Constant
Bit rate : 640 kb/s
Channel(s) : 6 channels
Channel layout : L R C LFE Ls Rs
Sampling rate : 48.0 kHz
Frame rate : 31.250 FPS (1536 SPF)
Compression mode : Lossy
Stream size : 542 MiB (7%)
Title : DDP 5.1
Language : English
Service kind : Complete Main
Default : No
Forced : No

Subtitulos

Trailer