74
PUNTOS
Calificar
CALIFICA
Calificar
Califica y/o escribe un comentario sobre la película.
Comentarios en el foroFORO

Les choses qu'on dit, les choses qu'on fait (2020)

Daphné, embarazada de tres meses y de vacaciones en el campo, acoge como huésped a Maxime, primo de su pareja, François, que ha tenido que volver a París para cubrir a un compañero hospitalizado. Durante cuatro días, esperando el regreso de François, Daphné y Maxime se van conociendo y desarrollando cierta amistad, contándose sus respectivas experiencias sentimentales.
Director Emmanuel Mouret
Actores Camélia Jordana, Niels Schneider, Vincent Macaigne, Émilie Dequenne
Duración 122 min
Streaming (Servicio externo)
Grupo: LAZARUS
Versión: WEB-DL H264 1080p
Tamaño: 4.3 GB
General
Unique ID : 26314201042221237508575452961313180858 (0x13CBEE4744F4151EBBFF6A0CF194CCBA)
Complete name : Les.Choses.Qu.On.Dit.Les.Choses.Qu.On.Fait.2020.FRENCH.1080p.WEB-DL.DD5.1.H264-LAZARUS.mkv
Format : Matroska
Format version : Version 4
File size : 4.28 GiB
Duration : 2 h 2 min
Overall bit rate : 5 005 kb/s
Movie name : Les.Choses.Qu.On.Dit.Les.Choses.Qu.On.Fait..2020.FRENCH.1080p.WEB-DL.DD5.1.H264-LAZARUS
Encoded date : UTC 2021-01-21 06:02:57
Writing application : mkvmerge v52.0.0 ('Secret For The Mad') 64-bit
Writing library : libebml v1.4.1 + libmatroska v1.6.2
Cover : Yes
Attachments : cover.jpg

Video
ID : 1
Format : AVC
Format/Info : Advanced Video Codec
Format profile : [email protected]
Format settings : CABAC / 5 Ref Frames
Format settings, CABAC : Yes
Format settings, Reference frames : 5 frames
Codec ID : V_MPEG4/ISO/AVC
Duration : 2 h 2 min
Bit rate : 4 619 kb/s
Width : 1 916 pixels
Height : 796 pixels
Display aspect ratio : 2.40:1
Frame rate mode : Constant
Frame rate : 24.000 FPS
Color space : YUV
Chroma subsampling : 4:2:0
Bit depth : 8 bits
Scan type : Progressive
Bits/(Pixel*Frame) : 0.126
Stream size : 3.95 GiB (92%)
Default : Yes
Forced : No
Color range : Limited
Color primaries : BT.709
Transfer characteristics : BT.709
Matrix coefficients : BT.709

Audio
ID : 2
Format : AC-3
Format/Info : Audio Coding 3
Commercial name : Dolby Digital
Codec ID : A_AC3
Duration : 2 h 2 min
Bit rate mode : Constant
Bit rate : 384 kb/s
Channel(s) : 6 channels
Channel layout : L R C LFE Ls Rs
Sampling rate : 48.0 kHz
Frame rate : 31.250 FPS (1536 SPF)
Compression mode : Lossy
Delay relative to video : -42 ms
Stream size : 336 MiB (8%)
Title : AC3 DD5.1 384kbps
Language : French
Service kind : Complete Main
Default : Yes
Forced : No

Menu
00:00:00.000 : en:Chapitre 1
00:11:58.666 : en:Chapitre 2
00:20:32.999 : en:Chapitre 3
00:29:31.665 : en:Chapitre 4
00:41:00.456 : en:Chapitre 5
00:52:24.456 : en:Chapitre 6
01:02:42.956 : en:Chapitre 7
01:10:02.914 : en:Chapitre 8
01:22:02.705 : en:Chapitre 9
01:30:17.996 : en:Chapitre 10
01:38:06.121 : en:Chapitre 11
01:49:46.871 : en:Chapitre 12
01:59:23.704 : en:Chapitre 13
Trailer