69
PUNTOS
Calificar
CALIFICA
Calificar
Califica y/o escribe un comentario sobre la película.
Comentarios en el foroFORO

Om det oändliga (2019)

Inspirada en el cuento de "Las mil y una noches", la celebrada colección de historias de oriente medio y de historia india, la película busca ser una yuxtaposición de las distintas etapas que un ser humano atraviesa en la vida. Desde los momentos más preciosos de la existencia hasta el despertar intelectual que nos lleva a tratar de guardar la vida como un tesoro y a compartirla con aquellos a los que amamos.
Director Roy Andersson
Actores Bengt Bergius, Anja Broms, Marie Burman, Amanda Davies
Duración 78 min
Streaming (Servicio externo)
Grupo: TEPES
Versión: WEB-DL H264 1080p
Tamaño: 4.6 GB
General
Unique ID                                : 189868833467087792213043642217036267763 (0x8ED7683D79427B38020D83CFAFDC40F3)
Complete name                            : About.Endlessness.2019.1080p.AMZN.WEB-DL.AAC2.0.H.264-TEPES.mkv
Format                                   : Matroska
Format version                           : Version 4
File size                                : 4.57 GiB
Duration                                 : 1 h 16 min
Overall bit rate                         : 8 608 kb/s
Encoded date                             : UTC 2021-01-01 06:21:41
Writing application                      : mkvmerge v38.0.0 ('The Silent Type') 64-bit
Writing library                          : libebml v1.3.9 + libmatroska v1.5.2

Video
ID                                       : 1
Format                                   : AVC
Format/Info                              : Advanced Video Codec
Format profile                           : [email protected]
Format settings                          : CABAC / 4 Ref Frames
Format settings, CABAC                   : Yes
Format settings, Reference frames        : 4 frames
Codec ID                                 : V_MPEG4/ISO/AVC
Duration                                 : 1 h 16 min
Bit rate mode                            : Constant
Bit rate                                 : 8 478 kb/s
Nominal bit rate                         : 10 000 kb/s
Width                                    : 1 920 pixels
Height                                   : 1 080 pixels
Display aspect ratio                     : 16:9
Frame rate mode                          : Constant
Frame rate                               : 24.000 FPS
Color space                              : YUV
Chroma subsampling                       : 4:2:0
Bit depth                                : 8 bits
Scan type                                : Progressive
Bits/(Pixel*Frame)                       : 0.170
Stream size                              : 4.50 GiB (98%)
Default                                  : Yes
Forced                                   : No
Color range                              : Limited
Color primaries                          : BT.709
Transfer characteristics                 : BT.709
Matrix coefficients                      : BT.709

Audio
ID                                       : 2
Format                                   : AAC LC
Format/Info                              : Advanced Audio Codec Low Complexity
Codec ID                                 : A_AAC-2
Duration                                 : 1 h 16 min
Bit rate                                 : 128 kb/s
Channel(s)                               : 2 channels
Channel layout                           : L R
Sampling rate                            : 48.0 kHz
Frame rate                               : 46.875 FPS (1024 SPF)
Compression mode                         : Lossy
Stream size                              : 69.6 MiB (1%)
Language                                 : Sami
Default                                  : Yes
Forced                                   : No

Text
ID                                       : 3
Format                                   : UTF-8
Codec ID                                 : S_TEXT/UTF8
Codec ID/Info                            : UTF-8 Plain Text
Duration                                 : 1 h 7 min
Bit rate                                 : 15 b/s
Count of elements                        : 287
Stream size                              : 7.43 KiB (0%)
Language                                 : English
Default                                  : No
Forced                                   : No

Subtitulos

Trailer