70
PUNTOS
Calificar
CALIFICA
Calificar
Califica y/o escribe un comentario sobre la película.
Comentarios en el foroFORO

Amanda (2018)

David es un joven de 20 años de París que se dedica a vivir el presente. Se gana la vida con pequeños trabajos, y evita tomar decisiones que le comprometan. Es solitario y soñador. Un día se enamora de Lena, una vecina que acaba de llegar. Pero el tranquilo transcurso de su vida estalla de pronto cuando su hermana mayor muere brutalmente en un atentado. David es la única persona que se puede hacer cargo de Amanda, su sobrina de siete años.
Director Mikhaël Hers
Actores Vincent Lacoste, Isaure Multrier, Stacy Martin, Ophélia Kolb
Duración 107 min
Streaming (Servicio externo)
Grupo: gooz
Versión: WEB x264 720p
Tamaño: 1.6 GB
General
Unique ID : 311543353845615315910009798225756196068 (0xEA6111421578BA252F551314F8F88CE4)
Complete name : Amanda.2018.720p.WEB.x264-gooz.mkv
Format : Matroska
Format version : Version 4 / Version 2
File size : 1.60 GiB
Duration : 1 h 46 min
Overall bit rate mode : Variable
Overall bit rate : 2 156 kb/s
Encoded date : UTC 2018-11-15 03:11:02
Writing application : mkvmerge v28.2.0 ('The Awakening') 64-bit
Writing library : libebml v1.3.6 + libmatroska v1.4.9
Comment : Ripped by gooz

Video
ID : 1
Format : AVC
Format/Info : Advanced Video Codec
Format profile : [email protected]
Format settings : CABAC / 4 Ref Frames
Format settings, CABAC : Yes
Format settings, RefFrames : 4 frames
Codec ID : V_MPEG4/ISO/AVC
Duration : 1 h 46 min
Bit rate mode : Variable
Bit rate : 1 834 kb/s
Maximum bit rate : 40.0 Mb/s
Width : 1 280 pixels
Height : 720 pixels
Display aspect ratio : 16:9
Frame rate mode : Constant
Frame rate : 24.000 FPS
Color space : YUV
Chroma subsampling : 4:2:0
Bit depth : 8 bits
Scan type : Progressive
Bits/(Pixel*Frame) : 0.083
Stream size : 1.36 GiB (85%)
Default : Yes
Forced : No
Color range : Limited
Color primaries : BT.709
Transfer characteristics : BT.709
Matrix coefficients : BT.709

Audio
ID : 2
Format : AC-3
Format/Info : Audio Coding 3
Codec ID : A_AC3
Duration : 1 h 46 min
Bit rate mode : Constant
Bit rate : 320 kb/s
Channel(s) : 2 channels
Channel positions : Front: L R
Sampling rate : 48.0 kHz
Frame rate : 31.250 FPS (1536 SPF)
Bit depth : 16 bits
Compression mode : Lossy
Stream size : 244 MiB (15%)
Language : French
Service kind : Complete Main
Default : Yes
Forced : No

Text
ID : 3
Format : UTF-8
Codec ID : S_TEXT/UTF8
Codec ID/Info : UTF-8 Plain Text
Duration : 1 h 39 min
Bit rate : 42 b/s
Count of elements : 1134
Stream size : 30.9 KiB (0%)
Language : English
Default : Yes
Forced : No

Subtitulos

Trailer