61
PUNTOS
Calificar
CALIFICA
Calificar
Califica y/o escribe un comentario sobre la película.
Comentarios en el foroFORO

Lahi, hayop (2020)

Una vez alguien me pidió que definiese al Hombre, eso que algunos llaman "seres humanos", y por un momento todo lo que pude hacer fue mascullar que el hombre es en realidad un animal, algo que me hizo sentir horrible. Ahora que lo pienso, entiendo que fue la mejor respuesta que pude dar. Sí, porque de hecho, el hombre sigue siendo exactamente eso: un animal. Con el paso del tiempo he desarrollado un discurso sobre este tema: pese a que estamos mejor desarrollados que muchas otras especies, la mayor parte de las personas se comportan como un chimpancé. Por lo tanto somos agresivos, envidiosos, territoriales y egoístas por naturaleza. Sin embargo, todavía queda algo de esperanza: se supone que nuestro cerebro aún está en desarrollo, y que cuando alcance todo su potencial seremos una especie distinta, altruista, honesta, como Buda o Ghandi.
Director Lav Diaz
Actores Nanding Josef, Bart Guingona, Don Melvin Boongaling, Hazel Orencio
Duración 150 min
Streaming (Servicio externo)
Grupo: SHR
Versión: WEB-DL x264 720p
Tamaño: 4.5 GB
General
Unique ID : 130751336750236065890228086072837111703 (0x625DCA9DE1E377C6C730584EB9F37F97)
Complete name : Lahi.Hayop.AKA.Genus.Pan.2020.720p.WEB-DL.AAC.2.0.x264-SHR.mkv
Format : Matroska
Format version : Version 4
File size : 4.54 GiB
Duration : 2 h 37 min
Overall bit rate : 4 124 kb/s
Movie name : Lahi, Hayop AKA Genus Pan [2020]
Encoded date : UTC 2020-10-24 09:19:49
Writing application : mkvmerge v51.0.0 ('I Wish') 64-bit
Writing library : libebml v1.4.0 + libmatroska v1.6.2

Video
ID : 1
Format : AVC
Format/Info : Advanced Video Codec
Format profile : [email protected]
Format settings : CABAC / 1 Ref Frames
Format settings, CABAC : Yes
Format settings, Reference frames : 1 frame
Format settings, GOP : M=1, N=48
Codec ID : V_MPEG4/ISO/AVC
Duration : 2 h 37 min
Bit rate : 4 000 kb/s
Width : 1 280 pixels
Height : 720 pixels
Display aspect ratio : 16:9
Frame rate mode : Constant
Frame rate : 24.000 FPS
Color space : YUV
Chroma subsampling : 4:2:0
Bit depth : 8 bits
Scan type : Progressive
Bits/(Pixel*Frame) : 0.181
Stream size : 4.39 GiB (97%)
Writing library : x264 core 148
Encoding settings : cabac=1 / ref=1 / deblock=1:0:0 / analyse=0x1:0x1 / me=dia / subme=1 / psy=1 / psy_rd=1.00:0.00 / mixed_ref=0 / me_range=16 / chroma_me=1 / trellis=0 / 8x8dct=0 / cqm=0 / deadzone=21,11 / fast_pskip=1 / chroma_qp_offset=0 / threads=22 / lookahead_threads=3 / sliced_threads=0 / nr=0 / decimate=1 / interlaced=0 / bluray_compat=0 / constrained_intra=0 / bframes=0 / weightp=1 / keyint=48 / keyint_min=24 / scenecut=0 / intra_refresh=0 / rc_lookahead=0 / rc=abr / mbtree=0 / bitrate=4000 / ratetol=1.0 / qcomp=0.60 / qpmin=0 / qpmax=69 / qpstep=4 / vbv_maxrate=6000 / vbv_bufsize=12000 / nal_hrd=none / filler=0 / ip_ratio=1.40 / aq=1:1.00
Default : Yes
Forced : No

Audio
ID : 2
Format : AAC LC
Format/Info : Advanced Audio Codec Low Complexity
Codec ID : A_AAC-2
Duration : 2 h 37 min
Bit rate : 127 kb/s
Channel(s) : 2 channels
Channel layout : L R
Sampling rate : 48.0 kHz
Frame rate : 46.875 FPS (1024 SPF)
Compression mode : Lossy
Stream size : 143 MiB (3%)
Language : Tagalog
Default : Yes
Forced : No

Text #1
ID : 3
Format : UTF-8
Codec ID : S_TEXT/UTF8
Codec ID/Info : UTF-8 Plain Text
Duration : 2 h 34 min
Bit rate : 28 b/s
Count of elements : 1198
Stream size : 32.2 KiB (0%)
Language : English
Default : Yes
Forced : No

Text #2
ID : 4
Format : UTF-8
Codec ID : S_TEXT/UTF8
Codec ID/Info : UTF-8 Plain Text
Duration : 2 h 36 min
Bit rate : 52 b/s
Count of elements : 1210
Stream size : 60.1 KiB (0%)
Language : Greek
Default : No
Forced : No
Trailer