84
PUNTOS
Calificar
CALIFICA
Calificar
Califica y/o escribe un comentario sobre la película.
Comentarios en el foroFORO

Dveselu putenis (2019)

El joven Art?rs, de sólo 16 años, tiene que ir a la guerra para luchar por la libertad junto a sus amigos, incluso cuando ninguno sabe en qué lado está esa verdad.
Director Dzintars Dreibergs
Actores Oto Brantevics, Raimonds Celms, Martins Vilsons, Jekabs Reinis
Duración 104 min
Streaming (Servicio externo)
Grupo: NOGRP
Versión: WEB-DL H264 1080p
Tamaño: 4.7 GB
General
Complete name                            : Blizzard.of.Souls.aka.Dveselu.putenis.2019.1080p.WEB-DL.AAC2.0.H.264-NOGRP\Blizzard.of.Souls.2019.1080p.WEB-DL.AAC2.0.H.264-NOGRP.mkv
Format                                   : Matroska
Format version                           : Version 4
File size                                : 4.72 GiB
Duration                                 : 2 h 3 min
Overall bit rate                         : 5 496 kb/s
Encoded date                             : UTC 2020-03-28 23:54:15
Writing application                      : mkvmerge v9.6.0 ('Slave To Your Mind') 64bit
Writing library                          : libebml v1.3.4 + libmatroska v1.4.5

Video
ID                                       : 1
Format                                   : AVC
Format/Info                              : Advanced Video Codec
Format profile                           : [email protected]
Format settings                          : CABAC / 5 Ref Frames
Format settings, CABAC                   : Yes
Format settings, Reference frames        : 5 frames
Codec ID                                 : V_MPEG4/ISO/AVC
Duration                                 : 2 h 3 min
Bit rate                                 : 5 240 kb/s
Width                                    : 2 048 pixels
Height                                   : 858 pixels
Display aspect ratio                     : 2.40:1
Frame rate mode                          : Constant
Frame rate                               : 25.000 FPS
Color space                              : YUV
Chroma subsampling                       : 4:2:0
Bit depth                                : 8 bits
Scan type                                : Progressive
Bits/(Pixel*Frame)                       : 0.119
Stream size                              : 4.50 GiB (95%)
Title                                    : Video Track
Writing library                          : x264 core 159 r10 1771b55
Encoding settings                        : cabac=1 / ref=5 / deblock=1:0:0 / analyse=0x3:0x113 / me=hex / subme=8 / psy=1 / psy_rd=1.00:0.00 / mixed_ref=1 / me_range=16 / chroma_me=1 / trellis=2 / 8x8dct=1 / cqm=0 / deadzone=21,11 / fast_pskip=1 / chroma_qp_offset=-2 / threads=27 / lookahead_threads=4 / sliced_threads=0 / nr=0 / decimate=1 / interlaced=0 / bluray_compat=0 / stitchable=1 / constrained_intra=0 / bframes=3 / b_pyramid=2 / b_adapt=2 / b_bias=0 / direct=3 / weightb=1 / open_gop=0 / weightp=2 / keyint=infinite / keyint_min=25 / scenecut=40 / intra_refresh=0 / rc_lookahead=50 / rc=crf / mbtree=1 / crf=20.0 / qcomp=0.60 / qpmin=5 / qpmax=69 / qpstep=4 / vbv_maxrate=5500 / vbv_bufsize=15000 / crf_max=0.0 / nal_hrd=none / filler=0 / ip_ratio=1.40 / aq=1:1.00
Language                                 : Latvian
Default                                  : No
Forced                                   : No
Color range                              : Limited
Color primaries                          : BT.709
Transfer characteristics                 : BT.709
Matrix coefficients                      : BT.709

Audio
ID                                       : 2
Format                                   : AAC LC
Format/Info                              : Advanced Audio Codec Low Complexity
Codec ID                                 : A_AAC-2
Duration                                 : 2 h 3 min
Bit rate                                 : 253 kb/s
Channel(s)                               : 2 channels
Channel layout                           : L R
Sampling rate                            : 48.0 kHz
Frame rate                               : 46.875 FPS (1024 SPF)
Compression mode                         : Lossy
Stream size                              : 223 MiB (5%)
Title                                    : Audio Track
Language                                 : Latvian
Default                                  : No
Forced                                   : No

Text #1
ID                                       : 3
Format                                   : UTF-8
Codec ID                                 : S_TEXT/UTF8
Codec ID/Info                            : UTF-8 Plain Text
Duration                                 : 1 h 55 min
Bit rate                                 : 23 b/s
Count of elements                        : 727
Stream size                              : 19.8 KiB (0%)
Title                                    : Subtitle Track
Language                                 : English
Default                                  : No
Forced                                   : No

Text #2
ID                                       : 4
Format                                   : UTF-8
Codec ID                                 : S_TEXT/UTF8
Codec ID/Info                            : UTF-8 Plain Text
Duration                                 : 1 h 54 min
Bit rate                                 : 26 b/s
Count of elements                        : 765
Stream size                              : 22.6 KiB (0%)
Title                                    : Subtitle Track
Language                                 : Latvian
Default                                  : No
Forced                                   : No

Text #3
ID                                       : 5
Format                                   : UTF-8
Codec ID                                 : S_TEXT/UTF8
Codec ID/Info                            : UTF-8 Plain Text
Duration                                 : 1 h 55 min
Bit rate                                 : 33 b/s
Count of elements                        : 643
Stream size                              : 28.3 KiB (0%)
Title                                    : Subtitle Track
Language                                 : Russian
Default                                  : No
Forced                                   : No
Trailer