60
PUNTOS
Calificar
CALIFICA
Calificar
Califica y/o escribe un comentario sobre la pelĂ­cula.
Comentarios en el foroFORO

Unhinged (2020)

En medio de un atasco, una mujer conduciendo toca el claxon de su coche en el momento equivocado, al hombre equivocado.
Director Derrick Borte
Actores Russell Crowe, Caren Pistorius, Gabriel Bateman, Jimmi Simpson
Duración 90 min
Streaming (Servicio externo)
Grupo: FGT
Versión: BDRip x264 1080p
Tamaño: 8.2 GB
Video
ID : 1
Format : AVC
Format/Info : Advanced Video Codec
Format profile : [email protected]
Format settings : CABAC / 4 Ref Frames
Format settings, CABAC : Yes
Format settings, Reference frames : 4 frames
Codec ID : V_MPEG4/ISO/AVC
Duration : 1 h 30 min
Bit rate : 11.5 Mb/s
Width : 1 920 pixels
Height : 804 pixels
Display aspect ratio : 2.40:1
Frame rate mode : Constant
Frame rate : 23.976 (24000/1001) FPS
Color space : YUV
Chroma subsampling : 4:2:0
Bit depth : 8 bits
Scan type : Progressive
Bits/(Pixel*Frame) : 0.311
Stream size : 7.22 GiB (88%)
Title : Unhinged.2020.1080p.BluRay.x264.DTS-FGT
Writing library : x264 core 148 r2795M aaa9aa8
Encoding settings : cabac=1 / ref=4 / deblock=1:-2:-2 / analyse=0x3:0x113 / me=umh / subme=9 / psy=1 / psy_rd=1.00:0.15 / mixed_ref=1 / me_range=16 / chroma_me=1 / trellis=2 / 8x8dct=1 / cqm=0 / deadzone=21,11 / fast_pskip=1 / chroma_qp_offset=-3 / threads=24 / lookahead_threads=3 / sliced_threads=0 / nr=0 / decimate=1 / interlaced=0 / bluray_compat=0 / constrained_intra=0 / bframes=3 / b_pyramid=2 / b_adapt=1 / b_bias=0 / direct=3 / weightb=1 / open_gop=0 / weightp=2 / keyint=250 / keyint_min=25 / scenecut=40 / intra_refresh=0 / rc_lookahead=50 / rc=2pass / mbtree=1 / bitrate=11500 / ratetol=1.0 / qcomp=0.60 / qpmin=0 / qpmax=69 / qpstep=4 / cplxblur=20.0 / qblur=0.5 / vbv_maxrate=31250 / vbv_bufsize=31250 / nal_hrd=none / filler=0 / ip_ratio=1.40 / aq=1:1.00
Language : English
Default : Yes
Forced : No

Audio
ID : 2
Format : DTS
Format/Info : Digital Theater Systems
Codec ID : A_DTS
Duration : 1 h 30 min
Bit rate mode : Constant
Bit rate : 1 509 kb/s
Channel(s) : 6 channels
Channel layout : C L R Ls Rs LFE
Sampling rate : 48.0 kHz
Frame rate : 93.750 FPS (512 SPF)
Bit depth : 24 bits
Compression mode : Lossy
Stream size : 973 MiB (12%)
Title : Unhinged.2020.1080p.BluRay.x264.DTS-FGT
Language : English
Default : Yes
Forced : No

Text
ID : 3
Format : UTF-8
Codec ID : S_TEXT/UTF8
Codec ID/Info : UTF-8 Plain Text
Duration : 1 h 23 min
Bit rate : 50 b/s
Count of elements : 1042
Stream size : 30.8 KiB (0%)
Language : English
Default : Yes
Forced : No

Menu
00:00:00.000 : en:Chapter 1
00:04:55.045 : en:Chapter 2
00:07:47.425 : en:Chapter 3
00:12:03.890 : en:Chapter 4
00:19:14.069 : en:Chapter 5
00:25:58.515 : en:Chapter 6
00:28:19.740 : en:Chapter 7
00:32:44.087 : en:Chapter 8
00:36:04.454 : en:Chapter 9
00:39:43.047 : en:Chapter 10
00:45:20.634 : en:Chapter 11
00:49:30.593 : en:Chapter 12
01:01:47.329 : en:Chapter 13
01:09:41.427 : en:Chapter 14
01:12:52.493 : en:Chapter 15
01:18:56.607 : en:Chapter 16

Subtitulos

Grupo: SURCODE
Versión: BDRip x264
Tamaño: 482 MB
SURCODE PRESENTS....

Unhinged (2020)

VIDEO_________: 1920 x 804 (crf17 @ 6380 kb/s)
VIDEO_SOURCE__: 1920 x 1080 (@ 26.3 mbps)
AUDIO_________: dts-hd
SUBTITEL______: ger
IMDB__________: www.imdb.com/title/tt10059518/
NOTES_________:
Grupo: SURCODE
Versión: BDRip x264 720p
Tamaño: 2.1 GB
SURCODE PRESENTS....

Unhinged (2020)

VIDEO_________: 1280 x 536 (crf17 @ 2605 kb/s)
VIDEO_SOURCE__: 1920 x 1080 (@ 26.3 mbps)
AUDIO_________: ac3
SUBTITEL______: ger
IMDB__________: www.imdb.com/title/tt10059518/
NOTES_________:
Grupo: SURCODE
Versión: BDRip x264 1080p
Tamaño: 5.3 GB
SURCODE PRESENTS....

Unhinged (2020)

VIDEO_________: 1920 x 804 (crf17 @ 6380 kb/s)
VIDEO_SOURCE__: 1920 x 1080 (@ 26.3 mbps)
AUDIO_________: dts-hd
SUBTITEL______: ger
IMDB__________: www.imdb.com/title/tt10059518/
NOTES_________:
Trailer