68
PUNTOS
Calificar
CALIFICA
Calificar
Califica y/o escribe un comentario sobre la película.
Comentarios en el foroFORO

La chute de l'empire américain (2018)

Pierre-Paul, de 36 años, un intelectual y doctor en filosofía se ve obligado a trabajar como repartidor para tener un salario decente. Un día, mientras entrega un paquete, se topa con la escena de un robo a mano armada que ha salido mal con un resultado de dos muertos. Se encuentra con dos bolsas de deporte repletas de billetes. Pierre-Paul se enfrenta a un dilema: largarse con las manos vacías o coger el dinero y huir...
Director Denys Arcand
Actores Maxim Roy, Éric Bruneau, Rose-Marie Perreault, Juliette Gosselin
Duración 127 min
Streaming (Servicio externo)
Grupo: THREESOME
Versión: BDRip x264 720p
Tamaño: 5.5 GB
General
Unique ID : 62974330205773073784463683277556763613 (0x2F606A321BE80127FD3C794881EF4BDD)
Complete name : La.Chute.De.L.Empire.Americain.2018.FRENCH.720p.BluRay.x264-THREESOME/La.Chute.De.L.Empire.Americain.2018.FRENCH.720p.BluRay.DTS.x264-THREESOME.mkv
Format : Matroska
Format version : Version 4
File size : 5.45 GiB
Duration : 2 h 7 min
Overall bit rate : 6 115 kb/s
Encoded date : UTC 2019-10-30 12:28:37
Writing application : mkvmerge v38.0.0 ('The Silent Type') 64-bit
Writing library : libebml v1.3.9 + libmatroska v1.5.2

Video
ID : 1
Format : AVC
Format/Info : Advanced Video Codec
Format profile : [email protected]
Format settings : CABAC / 5 Ref Frames
Format settings, CABAC : Yes
Format settings, Reference fra : 5 frames
Codec ID : V_MPEG4/ISO/AVC
Duration : 2 h 7 min
Bit rate : 4 603 kb/s
Width : 1 280 pixels
Height : 536 pixels
Display aspect ratio : 2.40:1
Frame rate mode : Constant
Frame rate : 23.976 (24000/1001) FPS
Color space : YUV
Chroma subsampling : 4:2:0
Bit depth : 8 bits
Scan type : Progressive
Bits/(Pixel*Frame) : 0.280
Stream size : 4.11 GiB (75%)
Title : La.Chute.De.L.Empire.Americain.2018.FRENCH.720p.BluRay.x264-THREESOME
Writing library : x264 core 157 r2969 d4099dd
Encoding settings : cabac=1 / ref=5 / deblock=1:0:0 / analyse=0x3:0x113 / me=umh / subme=8 / psy=1 / psy_rd=1.00:0.00 / mixed_ref=1 / me_range=16 / chroma_me=1 / trellis=2 / 8x8dct=1 / cqm=0 / deadzone=21,11 / fast_pskip=1 / chroma_qp_offset=-2 / threads=17 / lookahead_threads=2 / sliced_threads=0 / nr=0 / decimate=1 / interlaced=0 / bluray_compat=0 / constrained_intra=0 / bframes=3 / b_pyramid=2 / b_adapt=2 / b_bias=0 / direct=3 / weightb=1 / open_gop=0 / weightp=2 / keyint=240 / keyint_min=23 / scenecut=40 / intra_refresh=0 / rc_lookahead=50 / rc=2pass / mbtree=1 / bitrate=4603 / ratetol=1.0 / qcomp=0.60 / qpmin=0 / qpmax=69 / qpstep=4 / cplxblur=20.0 / qblur=0.5 / ip_ratio=1.40 / aq=1:1.00
Default : Yes
Forced : No

Audio
ID : 2
Format : DTS
Format/Info : Digital Theater Systems
Codec ID : A_DTS
Duration : 2 h 7 min
Bit rate mode : Constant
Bit rate : 1 509 kb/s
Channel(s) : 6 channels
Channel layout : C L R Ls Rs LFE
Sampling rate : 48.0 kHz
Frame rate : 93.750 FPS (512 SPF)
Bit depth : 24 bits
Compression mode : Lossy
Stream size : 1.35 GiB (25%)
Title : French
Language : French
Default : Yes
Forced : No

Text #1
ID : 3
Format : UTF-8
Codec ID : S_TEXT/UTF8
Codec ID/Info : UTF-8 Plain Text
Duration : 1 h 37 min
Bit rate : 2 b/s
Count of elements : 76
Stream size : 1.99 KiB (0%)
Title : French Forced
Language : French
Default : Yes
Forced : Yes

Text #2
ID : 4
Format : UTF-8
Codec ID : S_TEXT/UTF8
Codec ID/Info : UTF-8 Plain Text
Duration : 2 h 0 min
Bit rate : 76 b/s
Count of elements : 1935
Stream size : 67.5 KiB (0%)
Title : French
Language : French
Default : No
Forced : No

Menu
00:00:00.000 : :Chapter 01
00:05:55.355 : :Chapter 02
00:13:12.458 : :Chapter 03
00:19:00.056 : :Chapter 04
00:23:17.479 : :Chapter 05
00:28:31.418 : :Chapter 06
00:37:02.220 : :Chapter 07
00:47:08.367 : :Chapter 08
00:52:44.078 : :Chapter 09
00:59:20.390 : :Chapter 10
01:05:57.954 : :Chapter 11
01:13:09.885 : :Chapter 12
01:21:15.370 : :Chapter 13
01:29:58.059 : :Chapter 14
01:34:21.906 : :Chapter 15
01:39:28.379 : :Chapter 16
01:44:17.334 : :Chapter 17
01:50:55.440 : :Chapter 18
01:56:52.505 : :Chapter 19
02:01:48.593 : :Chapter 20

Subtitulos

Grupo: THREESOME
Versión: BDRip x264 1080p
Tamaño: 8.7 GB
General
Unique ID : 152856727849295979315306343593068507235 (0x72FF228B348017BD294AA39EF8FCB063)
Complete name : La.Chute.De.L.Empire.Americain.2018.FRENCH.1080p.BluRay.x264-THREESOME/La.Chute.De.L.Empire.Americain.2018.FRENCH.1080p.BluRay.x264-THREESOME.mkv
Format : Matroska
Format version : Version 4
File size : 8.74 GiB
Duration : 2 h 7 min
Overall bit rate : 9 794 kb/s
Encoded date : UTC 2019-10-30 13:02:59
Writing application : mkvmerge v38.0.0 ('The Silent Type') 64-bit
Writing library : libebml v1.3.9 + libmatroska v1.5.2

Video
ID : 1
Format : AVC
Format/Info : Advanced Video Codec
Format profile : [email protected]
Format settings : CABAC / 5 Ref Frames
Format settings, CABAC : Yes
Format settings, Reference fra : 5 frames
Codec ID : V_MPEG4/ISO/AVC
Duration : 2 h 7 min
Bit rate : 8 282 kb/s
Width : 1 920 pixels
Height : 808 pixels
Display aspect ratio : 2.40:1
Frame rate mode : Constant
Frame rate : 23.976 (24000/1001) FPS
Color space : YUV
Chroma subsampling : 4:2:0
Bit depth : 8 bits
Scan type : Progressive
Bits/(Pixel*Frame) : 0.223
Stream size : 7.39 GiB (85%)
Title : La.Chute.De.L.Empire.Americain.2018.FRENCH.1080p.BluRay.x264-THREESOME
Writing library : x264 core 157 r2969 d4099dd
Encoding settings : cabac=1 / ref=5 / deblock=1:0:0 / analyse=0x3:0x113 / me=umh / subme=8 / psy=1 / psy_rd=1.00:0.00 / mixed_ref=1 / me_range=16 / chroma_me=1 / trellis=2 / 8x8dct=1 / cqm=0 / deadzone=21,11 / fast_pskip=1 / chroma_qp_offset=-2 / threads=16 / lookahead_threads=2 / sliced_threads=0 / nr=0 / decimate=1 / interlaced=0 / bluray_compat=0 / constrained_intra=0 / bframes=3 / b_pyramid=2 / b_adapt=2 / b_bias=0 / direct=3 / weightb=1 / open_gop=0 / weightp=2 / keyint=240 / keyint_min=23 / scenecut=40 / intra_refresh=0 / rc_lookahead=50 / rc=2pass / mbtree=1 / bitrate=8282 / ratetol=1.0 / qcomp=0.60 / qpmin=0 / qpmax=69 / qpstep=4 / cplxblur=20.0 / qblur=0.5 / ip_ratio=1.40 / aq=1:1.00
Default : Yes
Forced : No

Audio
ID : 2
Format : DTS
Format/Info : Digital Theater Systems
Codec ID : A_DTS
Duration : 2 h 7 min
Bit rate mode : Constant
Bit rate : 1 509 kb/s
Channel(s) : 6 channels
Channel layout : C L R Ls Rs LFE
Sampling rate : 48.0 kHz
Frame rate : 93.750 FPS (512 SPF)
Bit depth : 24 bits
Compression mode : Lossy
Stream size : 1.35 GiB (15%)
Title : French
Language : French
Default : Yes
Forced : No

Text #1
ID : 3
Format : UTF-8
Codec ID : S_TEXT/UTF8
Codec ID/Info : UTF-8 Plain Text
Duration : 1 h 37 min
Bit rate : 2 b/s
Count of elements : 76
Stream size : 1.99 KiB (0%)
Title : French Forced
Language : French
Default : Yes
Forced : Yes

Text #2
ID : 4
Format : UTF-8
Codec ID : S_TEXT/UTF8
Codec ID/Info : UTF-8 Plain Text
Duration : 2 h 0 min
Bit rate : 76 b/s
Count of elements : 1935
Stream size : 67.5 KiB (0%)
Title : French
Language : French
Default : No
Forced : No

Menu
00:00:00.000 : :Chapter 01
00:05:55.355 : :Chapter 02
00:13:12.458 : :Chapter 03
00:19:00.056 : :Chapter 04
00:23:17.479 : :Chapter 05
00:28:31.418 : :Chapter 06
00:37:02.220 : :Chapter 07
00:47:08.367 : :Chapter 08
00:52:44.078 : :Chapter 09
00:59:20.390 : :Chapter 10
01:05:57.954 : :Chapter 11
01:13:09.885 : :Chapter 12
01:21:15.370 : :Chapter 13
01:29:58.059 : :Chapter 14
01:34:21.906 : :Chapter 15
01:39:28.379 : :Chapter 16
01:44:17.334 : :Chapter 17
01:50:55.440 : :Chapter 18
01:56:52.505 : :Chapter 19
02:01:48.593 : :Chapter 20

Subtitulos

Trailer