57
PUNTOS
Calificar
CALIFICA
Calificar
Califica y/o escribe un comentario sobre la película.
Comentarios en el foroFORO

The Rental (2020)

Dos parejas alquilan una casa de vacaciones para lo que debería ser una escapada de fin de semana.
Director Dave Franco
Actores Dan Stevens, Alison Brie, Sheila Vand, Jeremy Allen White
Duración 88 min
Streaming (Servicio externo)
Grupo: NTG
Versión: WEB-DL H264 720p
Tamaño: 1.8 GB
General
Unique ID : 181422725280525433067926090848554145392 (0x887CBEF4ADE8AFF55848B68EE29B5670)
Complete name : The.Rental.2020.720p.AMZN.WEB-DL.DDP5.1.H.264-NTG.mkv
Format : Matroska
Format version : Version 4
File size : 1.77 GiB
Duration : 1 h 28 min
Overall bit rate : 2 863 kb/s
Encoded date : UTC 2020-07-24 07:20:53
Writing application : mkvmerge v21.0.0 ('Tardigrades Will Inherit The Earth') 64-bit
Writing library : libebml v1.3.5 + libmatroska v1.4.8

Video
ID : 1
Format : AVC
Format/Info : Advanced Video Codec
Format profile : [email protected]
Format settings : CABAC / 4 Ref Frames
Format settings, CABAC : Yes
Format settings, Reference frames : 4 frames
Codec ID : V_MPEG4/ISO/AVC
Duration : 1 h 28 min
Bit rate mode : Constant
Bit rate : 2 221 kb/s
Nominal bit rate : 4 000 kb/s
Width : 1 248 pixels
Height : 520 pixels
Display aspect ratio : 2.40:1
Frame rate mode : Constant
Frame rate : 23.976 (24000/1001) FPS
Color space : YUV
Chroma subsampling : 4:2:0
Bit depth : 8 bits
Scan type : Progressive
Bits/(Pixel*Frame) : 0.143
Stream size : 1.37 GiB (78%)
Default : Yes
Forced : No
Color range : Limited
Color primaries : BT.709
Transfer characteristics : BT.709
Matrix coefficients : BT.709

Audio
ID : 2
Format : E-AC-3
Format/Info : Enhanced AC-3
Commercial name : Dolby Digital Plus
Codec ID : A_EAC3
Duration : 1 h 28 min
Bit rate mode : Constant
Bit rate : 640 kb/s
Channel(s) : 6 channels
Channel layout : L R C LFE Ls Rs
Sampling rate : 48.0 kHz
Frame rate : 31.250 FPS (1536 SPF)
Compression mode : Lossy
Stream size : 404 MiB (22%)
Language : English
Service kind : Complete Main
Default : Yes
Forced : No

Text #1
ID : 3
Format : UTF-8
Codec ID : S_TEXT/UTF8
Codec ID/Info : UTF-8 Plain Text
Duration : 1 h 21 min
Bit rate : 48 b/s
Count of elements : 1132
Stream size : 28.9 KiB (0%)
Language : English
Default : No
Forced : No

Text #2
ID : 4
Format : UTF-8
Codec ID : S_TEXT/UTF8
Codec ID/Info : UTF-8 Plain Text
Duration : 1 h 23 min
Bit rate : 49 b/s
Count of elements : 1216
Stream size : 30.2 KiB (0%)
Title : SDH
Language : English
Default : No
Forced : No

Subtitulos

Grupo: NTG
Versión: WEB-DL H264 1080p
Tamaño: 4.7 GB
General
Unique ID : 14319645172819946018467987680271729199 (0xAC5DD040E3B357325EDF6D27523022F)
Complete name : The.Rental.2020.1080p.AMZN.WEB-DL.DDP5.1.H.264-NTG.mkv
Format : Matroska
Format version : Version 4
File size : 4.73 GiB
Duration : 1 h 28 min
Overall bit rate : 7 673 kb/s
Encoded date : UTC 2020-07-24 07:19:21
Writing application : mkvmerge v21.0.0 ('Tardigrades Will Inherit The Earth') 64-bit
Writing library : libebml v1.3.5 + libmatroska v1.4.8

Video
ID : 1
Format : AVC
Format/Info : Advanced Video Codec
Format profile : [email protected]
Format settings : CABAC / 4 Ref Frames
Format settings, CABAC : Yes
Format settings, Reference frames : 4 frames
Codec ID : V_MPEG4/ISO/AVC
Duration : 1 h 28 min
Bit rate mode : Constant
Bit rate : 7 031 kb/s
Nominal bit rate : 10 000 kb/s
Width : 1 920 pixels
Height : 800 pixels
Display aspect ratio : 2.40:1
Frame rate mode : Constant
Frame rate : 23.976 (24000/1001) FPS
Color space : YUV
Chroma subsampling : 4:2:0
Bit depth : 8 bits
Scan type : Progressive
Bits/(Pixel*Frame) : 0.191
Stream size : 4.34 GiB (92%)
Default : Yes
Forced : No
Color range : Limited
Color primaries : BT.709
Transfer characteristics : BT.709
Matrix coefficients : BT.709

Audio
ID : 2
Format : E-AC-3
Format/Info : Enhanced AC-3
Commercial name : Dolby Digital Plus
Codec ID : A_EAC3
Duration : 1 h 28 min
Bit rate mode : Constant
Bit rate : 640 kb/s
Channel(s) : 6 channels
Channel layout : L R C LFE Ls Rs
Sampling rate : 48.0 kHz
Frame rate : 31.250 FPS (1536 SPF)
Compression mode : Lossy
Stream size : 404 MiB (8%)
Language : English
Service kind : Complete Main
Default : Yes
Forced : No

Text #1
ID : 3
Format : UTF-8
Codec ID : S_TEXT/UTF8
Codec ID/Info : UTF-8 Plain Text
Duration : 1 h 21 min
Bit rate : 48 b/s
Count of elements : 1132
Stream size : 28.9 KiB (0%)
Language : English
Default : No
Forced : No

Text #2
ID : 4
Format : UTF-8
Codec ID : S_TEXT/UTF8
Codec ID/Info : UTF-8 Plain Text
Duration : 1 h 23 min
Bit rate : 49 b/s
Count of elements : 1216
Stream size : 30.2 KiB (0%)
Title : SDH
Language : English
Default : No
Forced : No

Subtitulos

Trailer