55
PUNTOS
Calificar
CALIFICA
Calificar
Califica y/o escribe un comentario sobre la película.
Comentarios en el foroFORO

Mulan (2020)

Narra la historia de Mulán, una intrépida joven lo arriesga todo por amor a su familia y a su país hasta convertirse en una de las mayores guerreras de la historia de China. Cuando el emperador de China decreta que un hombre de cada familia debe servir en el Ejército Imperial para defender al país de los invasores del norte, Hua Mulán, la hija mayor de un condecorado guerrero, decide ocupar el lugar de su padre enfermo. Haciéndose pasar por un hombre, Hua Jun, se enfrenta a constantes desafíos y deberá aprender a canalizar su fuerza interior y a aceptar su verdadero potencial. Un viaje épico que la convertirá en una reconocida guerrera y le permitirá ganarse el respeto de una nación agradecida... y de un padre orgulloso. Remake del clásico de Disney.
Director Niki Caro
Actores Yifei Liu, Donnie Yen, Li Gong, Jet Li
Duración 115 min
Streaming (Servicio externo)
Grupo: PHOENiX
Versión: WEB-DL H264 1080p
Tamaño: 7.4 GB
Video
ID : 1
Format : AVC
Format/Info : Advanced Video Codec
Format profile : [email protected]
Format settings : CABAC / 4 Ref Frames
Format settings, CABAC : Yes
Format settings, Reference frames : 4 frames
Codec ID : V_MPEG4/ISO/AVC
Duration : 1 h 55 min
Bit rate mode : Variable
Bit rate : 8 482 kb/s
Maximum bit rate : 12.7 Mb/s
Width : 1 920 pixels
Height : 1 080 pixels
Display aspect ratio : 16:9
Frame rate mode : Constant
Frame rate : 23.976 (24000/1001) FPS
Color space : YUV
Chroma subsampling : 4:2:0
Bit depth : 8 bits
Scan type : Progressive
Bits/(Pixel*Frame) : 0.171
Stream size : 6.82 GiB (92%)
Language : English
Default : Yes
Forced : No
Color range : Limited
Color primaries : BT.709
Transfer characteristics : BT.709
Matrix coefficients : BT.709

Audio
ID : 2
Format : E-AC-3 JOC
Format/Info : Enhanced AC-3 with Joint Object Coding
Commercial name : Dolby Digital Plus with Dolby Atmos
Codec ID : A_EAC3
Duration : 1 h 55 min
Bit rate mode : Constant
Bit rate : 768 kb/s
Channel(s) : 6 channels
Channel layout : L R C LFE Ls Rs
Sampling rate : 48.0 kHz
Frame rate : 31.250 FPS (1536 SPF)
Compression mode : Lossy
Stream size : 633 MiB (8%)
Title : English
Language : English
Service kind : Complete Main
Default : Yes
Forced : No
Complexity index : 16
Number of dynamic objects : 15
Bed channel count : 1 channel
Bed channel configuration : LFE

Subtitulos

Trailer