73
PUNTOS
Calificar
CALIFICA
Calificar
Califica y/o escribe un comentario sobre la película.
Comentarios en el foroFORO

Never Rarely Sometimes Always (2020)

Autumn, una apática y callada adolescente, trabaja como cajera en un supermercado rural de Pennsylvania. Viéndose obligada a sobrellevar un embarazo accidental y sin alternativas viables para poder realizar un aborto en su propio estado, ella y su prima Skylar reúnen algo de dinero y se embarcan en un autobús rumbo a Nueva York. Con la dirección de una clínica apuntada en un papel y sin un lugar en el que pasar la noche, las dos chicas se adentran en una ciudad que desconocen.
Director Eliza Hittman
Actores Sidney Flanigan, Talia Ryder, Théodore Pellerin, Eliazar Jimenez
Duración 101 min
Streaming (Servicio externo)
Grupo: PHASE
Versión: DVDRip x264
Tamaño: 697 Mb
Never.Rarely.Sometimes.Always.2020.DVDRip.x264-PHASE

SIZE ...... 697.07 MiB
DURATION .. 1h 40m
VIDEO ..... x264 720x386 848kbps (crf19) @ 23.976fps
AUDIO ..... AAC 115kbps 2ch
SUBS ...... English

LINK ...... https://www.imdb.com/title/tt9000224
RATING .... 7.3/10 (5,469 votes)
GENRE ..... Drama

Subtitulos

Grupo: NTG
Versión: WEB-DL H264 1080p
Tamaño: 7.2 GB
Video
ID : 1
Format : AVC
Format/Info : Advanced Video Codec
Format profile : [email protected]
Format settings : CABAC / 4 Ref Frames
Format settings, CABAC : Yes
Format settings, Reference frames : 4 frames
Codec ID : V_MPEG4/ISO/AVC
Duration : 1 h 40 min
Bit rate mode : Constant
Bit rate : 10 000 kb/s
Width : 1 920 pixels
Height : 1 040 pixels
Display aspect ratio : 1.85:1
Frame rate mode : Constant
Frame rate : 23.976 (24000/1001) FPS
Color space : YUV
Chroma subsampling : 4:2:0
Bit depth : 8 bits
Scan type : Progressive
Bits/(Pixel*Frame) : 0.209
Stream size : 6.73 GiB (94%)
Default : Yes
Forced : No
Color range : Limited
Color primaries : BT.709
Transfer characteristics : BT.709
Matrix coefficients : BT.709

Audio
ID : 2
Format : E-AC-3
Format/Info : Enhanced AC-3
Commercial name : Dolby Digital Plus
Codec ID : A_EAC3
Duration : 1 h 40 min
Bit rate mode : Constant
Bit rate : 640 kb/s
Channel(s) : 6 channels
Channel layout : L R C LFE Ls Rs
Sampling rate : 48.0 kHz
Frame rate : 31.250 FPS (1536 SPF)
Compression mode : Lossy
Stream size : 462 MiB (6%)
Language : English
Service kind : Complete Main
Default : Yes
Forced : No

Text #1
ID : 3
Format : UTF-8
Codec ID : S_TEXT/UTF8
Codec ID/Info : UTF-8 Plain Text
Duration : 1 h 39 min
Bit rate : 32 b/s
Count of elements : 884
Stream size : 23.9 KiB (0%)
Language : English
Default : No
Forced : No

Text #2
ID : 4
Format : UTF-8
Codec ID : S_TEXT/UTF8
Codec ID/Info : UTF-8 Plain Text
Duration : 1 h 39 min
Bit rate : 40 b/s
Count of elements : 1186
Stream size : 29.7 KiB (0%)
Title : SDH
Language : English
Default : No
Forced : No

Menu
00:00:00.000 : en:Studio Logo
00:00:40.000 : en:Talent show at school
00:03:04.000 : en:Title Sequence
00:03:14.000 : en:After the talent show
00:04:34.000 : en:Autumn comes back to home
00:05:57.000 : en:Before school in the morning
00:07:21.000 : en:Autumn goes to test facility
00:11:38.000 : en:Autumn get a new thing
00:14:45.000 : en:Skylar talks to Autumn
00:17:25.000 : en:Ted watches TV
00:18:35.000 : en:Autumn doesn't know what she wants to do
00:22:13.000 : en:she checks up abortion
00:25:00.000 : en:Autumn does not feel good
00:28:15.000 : en:Autumn stays with Skylar
00:30:48.000 : en:The girls take a bus
00:34:29.000 : en:Jasper talks to Skylar
00:36:59.000 : en:The girls get in NY
00:39:25.000 : en:Autumn takes another test
00:44:47.000 : en:The girls are at train station
00:48:09.000 : en:The girls spend night at outside
00:52:20.000 : en:Autumn meets Kelly
01:04:39.000 : en:They don't have enough money
01:08:59.000 : en:Jasper comes to the girls
01:16:44.000 : en:Autumn calls her mother
01:20:33.000 : en:The girls need bus tickets
01:22:19.000 : en:Autumn looks for Skylar
01:26:12.000 : en:Autumn has the surgery
01:30:09.000 : en:Skylar asks questions
01:33:11.000 : en:The girls are on the bus
01:35:58.000 : en:End Credits

Subtitulos

Trailer