70
PUNTOS
Calificar
CALIFICA
Calificar
Califica y/o escribe un comentario sobre la película.
Comentarios en el foroFORO

Koirat eivät käytä housuja (2019)

Juha desarrolla una inesperada pero poderosa conexión con una dominatrix llamada Mona después de sufrir un incidente traumático que la deja paralizada a nivel emocional. Su peligrosa adicción al sofoco recibe una plácida contestación por parte de Mona, que lleva a su nueva compañera hacia la iluminación espiritual a través de un camino salvaje y alocado.
Director J.-P. Valkeapää
Actores Pekka Strang, Krista Kosonen, Ilona Huhta, Jani Volanen
Duración 105 min
Streaming (Servicio externo)
Grupo: DEEP
Versión: WEB-DL H264 720p REPACK
Tamaño: 3.4 GB
General
Unique ID : 13623025541644994118704808215220608709 (0xA3FB3042B8B72A7131A4FF584585EC5)
Complete name : Dogs.Dont.Wear.Pants.2019.R2PACK.720p.WEB-DL.h264.AC3-DEEP.mkv
Format : Matroska
Format version : Version 4
File size : 3.14 GiB
Duration : 1 h 40 min
Overall bit rate : 4 465 kb/s
Encoded date : UTC 2020-02-11 19:41:03
Writing application : mkvmerge v21.0.0 ('Tardigrades Will Inherit The Earth') 64-bit
Writing library : libebml v1.3.5 + libmatroska v1.4.8

Video
ID : 1
Format : AVC
Format/Info : Advanced Video Codec
Format profile : [email protected]
Format settings : 2 Ref Frames
Format settings, CABAC : No
Format settings, Reference frames : 2 frames
Codec ID : V_MPEG4/ISO/AVC
Duration : 1 h 40 min
Bit rate : 4 080 kb/s
Width : 960 pixels
Height : 536 pixels
Display aspect ratio : 2.40:1
Frame rate mode : Constant
Frame rate : 25.000 FPS
Color space : YUV
Chroma subsampling : 4:2:0
Bit depth : 8 bits
Scan type : Progressive
Bits/(Pixel*Frame) : 0.317
Stream size : 2.87 GiB (91%)
Language : Finnish
Default : No
Forced : No
Color range : Limited
Color primaries : BT.709
Transfer characteristics : BT.709
Matrix coefficients : BT.709

Audio
ID : 2
Format : AC-3
Format/Info : Audio Coding 3
Commercial name : Dolby Digital
Codec ID : A_AC3
Duration : 1 h 40 min
Bit rate mode : Constant
Bit rate : 384 kb/s
Channel(s) : 6 channels
Channel layout : L R C LFE Ls Rs
Sampling rate : 48.0 kHz
Frame rate : 31.250 FPS (1536 SPF)
Bit depth : 16 bits
Compression mode : Lossy
Stream size : 276 MiB (9%)
Language : Finnish
Service kind : Complete Main
Default : No
Forced : No

Text #1
ID : 3
Format : UTF-8
Codec ID : S_TEXT/UTF8
Codec ID/Info : UTF-8 Plain Text
Duration : 1 h 36 min
Bit rate : 13 b/s
Count of elements : 467
Stream size : 9.51 KiB (0%)
Title : Retail
Language : English
Default : Yes
Forced : No

Text #2
ID : 4
Format : UTF-8
Codec ID : S_TEXT/UTF8
Codec ID/Info : UTF-8 Plain Text
Duration : 1 h 36 min
Bit rate : 13 b/s
Count of elements : 460
Stream size : 9.85 KiB (0%)
Title : fansub by johnnydeep
Language : English
Default : No
Forced : No

Menu
00:00:00.000 : en:?“?»?°???° 1
00:08:09.800 : en:?“?»?°???° 2
00:16:25.760 : en:?“?»?°???° 3
00:24:48.240 : en:?“?»?°???° 4
00:33:04.000 : en:?“?»?°???° 5
00:41:25.079 : en:?“?»?°???° 6
00:49:50.758 : en:?“?»?°???° 7
00:58:31.877 : en:?“?»?°???° 8
01:07:22.636 : en:?“?»?°???° 9
01:15:55.195 : en:?“?»?°???° 10
01:24:12.554 : en:?“?»?°???° 11
01:32:32.554 : en:?“?»?°???° 12
Trailer