67
PUNTOS
Calificar
CALIFICA
Calificar
Califica y/o escribe un comentario sobre la película.
Comentarios en el foroFORO

Le meilleur reste à venir (2019)

Después de un gran malentendido, dos amigos de la infancia, cada uno convencido de que el otro tiene solo unos pocos meses de vida, deciden hacer todo lo posible para recuperar el tiempo perdido.
Director Alexandre de La Patellière, Matthieu Delaporte
Actores Fabrice Luchini, Patrick Bruel, Zineb Triki, Pascale Arbillot
Duración 117 min
Streaming (Servicio externo)
Grupo: UKDHD
Versión: BDRip x264 720p
Tamaño: 5.5 GB
Qualité : BluRay 720p
Format : MKV
Langue : Français
Codec vidéo : AVC
Débit vidéo : 5130 kbps
Images/s : 23.97
Codec audio : DTS
Débit audio : 1509 kbps
Sous-titrage : Forced & Full

Taille : 5.46 Go
Nb de fichiers: 1 

Subtitulos

Grupo: UKDHD
Versión: BDRip x264 1080p
Tamaño: 9.8 GB
Format : Matroska
Format version : Version 4
File size : 9.84 GiB
Duration : 1 h 57 min
Overall bit rate : 12.0 Mb/s
Encoded date : UTC 2020-06-25 04:39:59
Writing application : mkvmerge v42.0.0 ('Overtime') 32-bit
Writing library : libebml v1.3.10 + libmatroska v1.5.2

Video
ID : 1
Format : AVC
Format/Info : Advanced Video Codec
Format profile : [email protected]
Format settings : CABAC / 5 Ref Frames
Format settings, CABAC : Yes
Format settings, Reference frames : 5 frames
Codec ID : V_MPEG4/ISO/AVC
Duration : 1 h 57 min
Bit rate : 10.4 Mb/s
Width : 1 920 pixels
Height : 808 pixels
Display aspect ratio : 2.40:1
Frame rate mode : Constant
Frame rate : 23.976 (24000/1001) FPS
Color space : YUV
Chroma subsampling : 4:2:0
Bit depth : 8 bits
Scan type : Progressive
Bits/(Pixel*Frame) : 0.281
Stream size : 8.59 GiB (87%)
Title : Le meilleur reste à venir
Writing library : x264 core 160 r3007 235ce61
Encoding settings : cabac=1 / ref=5 / deblock=1:-3:-3 / analyse=0x3:0x133 / me=umh / subme=8 / psy=1 / psy_rd=1.00:0.00 / mixed_ref=1 / me_range=32 / chroma_me=1 / trellis=2 / 8x8dct=1 / cqm=0 / deadzone=21,11 / fast_pskip=0 / chroma_qp_offset=-2 / threads=24 / lookahead_threads=4 / sliced_threads=0 / nr=0 / decimate=1 / interlaced=0 / bluray_compat=0 / constrained_intra=0 / bframes=3 / b_pyramid=2 / b_adapt=2 / b_bias=0 / direct=3 / weightb=1 / open_gop=0 / weightp=2 / keyint=240 / keyint_min=23 / scenecut=40 / intra_refresh=0 / rc_lookahead=60 / rc=2pass / mbtree=1 / bitrate=10450 / ratetol=1.0 / qcomp=0.60 / qpmin=0 / qpmax=69 / qpstep=4 / cplxblur=20.0 / qblur=0.5 / ip_ratio=1.40 / aq=1:1.00
Default : Yes
Forced : No
Color range : Limited
Matrix coefficients : BT.709

Audio
ID : 2
Format : DTS
Format/Info : Digital Theater Systems
Codec ID : A_DTS
Duration : 1 h 57 min
Bit rate mode : Constant
Bit rate : 1 509 kb/s
Channel(s) : 6 channels
Channel layout : C L R Ls Rs LFE
Sampling rate : 48.0 kHz
Frame rate : 93.750 FPS (512 SPF)
Bit depth : 24 bits
Compression mode : Lossy
Stream size : 1.24 GiB (13%)
Title : Français DTS 5.1
Language : French
Default : Yes
Forced : No

Text #1
ID : 3
Format : UTF-8
Codec ID : S_TEXT/UTF8
Codec ID/Info : UTF-8 Plain Text
Duration : 1 min 31 s
Bit rate : 54 b/s
Count of elements : 24
Stream size : 624 Bytes (0%)
Title : Français (Forced)
Language : French
Default : Yes
Forced : Yes

Text #2
ID : 4
Format : UTF-8
Codec ID : S_TEXT/UTF8
Codec ID/Info : UTF-8 Plain Text
Duration : 1 h 57 min
Bit rate : 68 b/s
Count of elements : 2175
Stream size : 58.5 KiB (0%)
Title : Français (SDH)
Language : French
Default : No
Forced : No

Menu
00:00:00.000 : en:Chapter 01
00:08:39.060 : en:Chapter 02
00:19:16.364 : en:Chapter 03
00:31:07.908 : en:Chapter 04
00:41:18.976 : en:Chapter 05
00:53:21.073 : en:Chapter 06
01:04:21.274 : en:Chapter 07
01:13:45.463 : en:Chapter 08
01:22:50.883 : en:Chapter 09
01:32:52.025 : en:Chapter 10
01:45:06.050 : en:Chapter 11
01:54:16.850 : en:Chapter 12

Subtitulos

Trailer