70
PUNTOS
Calificar
CALIFICA
Calificar
Califica y/o escribe un comentario sobre la película.
Comentarios en el foroFORO

Ayka (2018)

Ayka acaba de dar a luz, pero no puede permitirse tener un hijo. Es ilegal en Moscú, no tiene trabajo y tiene que pagar demasiadas deudas. No tiene ni siquiera un lugar donde dormir. Y sin embargo, la naturaleza pone todo en orden. Después de dar a luz a su hijo, lo deja en el hospital. Sin embargo, algún tiempo después, su instinto maternal le lleva a realizar intentos desesperados de encontrar al niño abandonado.
Director Sergei Dvortsevoy
Actores Samal Yeslyamova, Zhipara Abdilaeva, Sergey Mazur, David Alaverdyan
Duración 100 min
Streaming (Servicio externo)
Grupo: NoGRP
Versión: WEB-DL x264 1080p
Tamaño: 4.3 GB
General
Unique ID : 187919571005884340633603414916201428959 (0x8D5FFE2E47759680CB362083231FB7DF)
Complete name : Ayka.2018.1080p.ORIGINAL.AUDIO.WEB-DL.x264.mkv
Format : Matroska
Format version : Version 4
File size : 4.32 GiB
Duration : 1 h 53 min
Overall bit rate : 5 437 kb/s
Encoded date : UTC 2020-06-27 05:10:58
Writing application : mkvmerge v47.0.0 ('Black Flag') 64-bit
Writing library : libebml v1.3.10 + libmatroska v1.5.2

Video
ID : 1
Format : AVC
Format/Info : Advanced Video Codec
Format profile : [email protected]
Format settings : CABAC / 4 Ref Frames
Format settings, CABAC : Yes
Format settings, Reference frames : 4 frames
Codec ID : V_MPEG4/ISO/AVC
Duration : 1 h 53 min
Bit rate : 5 137 kb/s
Width : 1 920 pixels
Height : 1 080 pixels
Display aspect ratio : 16:9
Frame rate mode : Constant
Frame rate : 24.000 FPS
Color space : YUV
Chroma subsampling : 4:2:0
Bit depth : 8 bits
Scan type : Progressive
Bits/(Pixel*Frame) : 0.103
Stream size : 4.08 GiB (94%)
Default : Yes
Forced : No
Color range : Limited
Color primaries : BT.709
Transfer characteristics : BT.709
Matrix coefficients : BT.709
Duration_Source : General_Duration

Audio
ID : 2
Format : AC-3
Format/Info : Audio Coding 3
Commercial name : Dolby Digital
Codec ID : A_AC3
Duration : 1 h 53 min
Bit rate mode : Constant
Bit rate : 192 kb/s
Channel(s) : 2 channels
Channel layout : L R
Sampling rate : 44.1 kHz
Frame rate : 28.711 FPS (1536 SPF)
Compression mode : Lossy
Stream size : 156 MiB (4%)
Title : Original Audio (Russian, Kirghiz)
Language : Russian
Service kind : Complete Main
Default : Yes
Forced : No
Duration_Source : General_Duration

Subtitulos

Trailer