68
PUNTOS
Calificar
CALIFICA
Calificar
Califica y/o escribe un comentario sobre la película.
Comentarios en el foroFORO

Gospod postoi, imeto i' e Petrunija (2019)

Cada mes de enero tiene lugar el mismo festival en un pequeño pueblo de Macedonia: uno de los sacerdotes de mayor rango eclesiástico lanza una cruz al agua que un grupo de hombres ha de buscar. Se dice que aquel que la encuentre tendrá para siempre buena suerte en la vida y prosperidad. Sin embargo, este año es una mujer, Petrunija (Zorica Nusheva) quien tiene la suerte de encontrarla. Dado que vive en una sociedad basada en antiguos códigos morales y sociales, la comunidad de hombres se siente con el derecho de estar enfurecidos. ¿Cómo es posible que una mujer se haya atrevido a hacer lo mismo que ellos, teniendo éxito en el proceso? Sin embargo, Petrunija se siente la legítima ganadora del concurso y no está dispuesta a devolver la cruz bajo ningún concepto.
Director Teona Strugar Mitevska
Actores Zorica Nusheva, Labina Mitevska, Stefan Vujisic, Suad Begovski
Duración 100 min
Streaming (Servicio externo)
Grupo: HORiZON-ArtSubs
Versión: WebRip x264 1080p
Tamaño: 2.3 GB
God.Exists.Her.Name.Is.Petrunya.2019.1080p.WEBRip.x264.AC3.HORiZON-ArtSubs.mkv
Format                                   : Matroska
Format version                           : Version 4
File size                                : 2.19 GiB
Duration                                 : 1 h 40 min
Overall bit rate                         : 3 119 kb/s
Movie name                               : Deus é Mulher e Seu Nome é Petúnia (
Description                              : O filme se passa na pequena vila de Stip, na Macedônia, quando Petúnia, uma mulher de 31 anos que está solteira e desempregada, mergulha em um rio para pegar a cruz em uma competição religiosa, exclusivamente masculina. Petúnia se torna a vencedora, mas, 
Writing application                      : DVDFab
Writing library                          : DVDFab
ErrorDetectionType                       : Per level 1
ARTIST                                   : Teona Strugar Mitevska
DATE                                     : 2019-12-26T08:00:00Z
GENRE                                    : Drama

Video
ID                                       : 1
Format                                   : AVC
Format/Info                              : Advanced Video Codec
Format profile                           : [email protected]
Format settings                          : CABAC / 4 Ref Frames
Format settings, CABAC                   : Yes
Format settings, ReFrames                : 4 frames
Codec ID                                 : V_MPEG4/ISO/AVC
Duration                                 : 1 h 40 min
Bit rate                                 : 2 800 kb/s
Width                                    : 1 920 pixels
Height                                   : 858 pixels
Display aspect ratio                     : 2.25:1
Frame rate mode                          : Constant
Frame rate                               : 24.000 FPS
Color space                              : YUV
Chroma subsampling                       : 4:2:0
Bit depth                                : 8 bits
Scan type                                : Progressive
Bits/(Pixel*Frame)                       : 0.071
Stream size                              : 1.87 GiB (86%)
Writing library                          : x264 core 155 r2917M 0a84d98
Encoding settings                        : cabac=1 / ref=3 / deblock=1:0:0 / analyse=0x3:0x113 / me=hex / subme=7 / psy=1 / psy_rd=1.00:0.00 / mixed_ref=1 / me_range=16 / chroma_me=1 / trellis=1 / 8x8dct=1 / cqm=0 / deadzone=21,11 / fast_pskip=1 / chroma_qp_offset=-2 / threads=6 / lookahead_threads=1 / sliced_threads=0 / nr=0 / decimate=1 / interlaced=0 / bluray_compat=0 / constrained_intra=0 / bframes=3 / b_pyramid=2 / b_adapt=1 / b_bias=0 / direct=1 / weightb=1 / open_gop=0 / weightp=2 / keyint=24 / keyint_min=2 / scenecut=40 / intra_refresh=0 / rc_lookahead=24 / rc=2pass / mbtree=1 / bitrate=2800 / ratetol=1.0 / qcomp=0.60 / qpmin=0 / qpmax=69 / qpstep=4 / cplxblur=20.0 / qblur=0.5 / vbv_maxrate=2800 / vbv_bufsize=2800 / nal_hrd=none / filler=0 / ip_ratio=1.40 / aq=1:1.00
Language                                 : English
Default                                  : Yes
Forced                                   : No

Audio
ID                                       : 2
Format                                   : AC-3
Format/Info                              : Audio Coding 3
Commercial name                          : Dolby Digital
Codec ID                                 : A_AC3
Duration                                 : 1 h 40 min
Bit rate mode                            : Constant
Bit rate                                 : 384 kb/s
Channel(s)                               : 6 channels
Channel layout                           : L R C LFE Ls Rs
Sampling rate                            : 48.0 kHz
Frame rate                               : 31.250 FPS (1536 SPF)
Bit depth                                : 16 bits
Compression mode                         : Lossy
Delay relative to video                  : -42 ms
Stream size                              : 276 MiB (12%)
Service kind                             : Complete Main
Default                                  : Yes
Forced                                   : No

Menu
00:00:00.000                             : :1
00:11:52.208                             : :2
00:25:12.416                             : :3
00:42:08.498                             : :4
00:57:15.164                             : :5
01:12:16.039                             : :6
01:28:34.789                             : :7
01:36:20.955                             : :8

Subtitulos

Trailer